<?xml version="1.0" standalone="no"?>
<!DOCTYPE svg PUBLIC "-//W3C//DTD SVG 1.1//EN" "http://www.w3.org/Graphics/SVG/1.1/DTD/svg11.dtd" >
<svg xmlns="http://www.w3.org/2000/svg">
<metadata>Generated by IcoMoon</metadata>
<defs>
<font id="icomoon" horiz-adv-x="1024">
<font-face units-per-em="1024" ascent="960" descent="-64" />
<missing-glyph horiz-adv-x="1024" />
<glyph unicode="&#x20;" horiz-adv-x="512" d="" />
<glyph unicode="&#xe900;" glyph-name="activity" d="M640 198.924l-215.523 646.569c-12.966 38.899-67.988 38.899-80.954 0l-118.275-354.826h-139.914c-23.564 0-42.667-19.103-42.667-42.667s19.103-42.667 42.667-42.667h170.667c18.365 0 34.67 11.752 40.477 29.174l87.523 262.569 215.523-646.569c12.966-38.899 67.988-38.899 80.954 0l118.275 354.826h139.914c23.564 0 42.667 19.103 42.667 42.667s-19.103 42.667-42.667 42.667h-170.667c-18.365 0-34.67-11.752-40.477-29.174l-87.523-262.569z" />
<glyph unicode="&#xe901;" glyph-name="airplay" d="M544.777 347.315l213.333-256c23.158-27.79 3.397-69.981-32.777-69.981h-426.667c-36.174 0-55.936 42.191-32.777 69.981l213.333 256c17.058 20.47 48.497 20.47 65.555 0zM512 253.353l-122.238-146.686h244.476l-122.238 146.686zM853.333 874.667c70.692 0 128-57.308 128-128v0-426.667c0-70.692-57.308-128-128-128v0h-42.667c-23.564 0-42.667 19.103-42.667 42.667s19.103 42.667 42.667 42.667v0h42.667c23.564 0 42.667 19.103 42.667 42.667v0 426.667c0 23.564-19.103 42.667-42.667 42.667v0h-682.667c-23.564 0-42.667-19.103-42.667-42.667v0-426.667c0-23.564 19.103-42.667 42.667-42.667v0h42.667c23.564 0 42.667-19.103 42.667-42.667s-19.103-42.667-42.667-42.667v0h-42.667c-70.692 0-128 57.308-128 128v0 426.667c0 70.692 57.308 128 128 128v0z" />
<glyph unicode="&#xe902;" glyph-name="alert-circle" d="M512 917.333c259.206 0 469.333-210.128 469.333-469.333s-210.128-469.333-469.333-469.333c-259.206 0-469.333 210.128-469.333 469.333s210.128 469.333 469.333 469.333zM512 832c-212.077 0-384-171.923-384-384s171.923-384 384-384c212.077 0 384 171.923 384 384s-171.923 384-384 384zM481.83 350.17c16.662 16.662 43.677 16.662 60.34 0s16.662-43.677 0-60.34c-16.662-16.662-43.677-16.662-60.34 0s-16.662 43.677 0 60.34zM512 661.333c23.564 0 42.667-19.103 42.667-42.667v0-170.667c0-23.564-19.103-42.667-42.667-42.667s-42.667 19.103-42.667 42.667v0 170.667c0 23.564 19.103 42.667 42.667 42.667z" />
<glyph unicode="&#xe903;" glyph-name="alert-octagon" d="M688.64 917.333c11.316 0 22.168-4.495 30.17-12.497l250.027-250.027c8.002-8.002 12.497-18.854 12.497-30.17v-353.28c0-11.316-4.495-22.168-12.497-30.17l-250.027-250.027c-8.002-8.002-18.854-12.497-30.17-12.497h-353.28c-11.316 0-22.168 4.495-30.17 12.497l-250.027 250.027c-8.002 8.002-12.497 18.854-12.497 30.17v353.28c0 11.316 4.495 22.168 12.497 30.17l250.027 250.027c8.002 8.002 18.854 12.497 30.17 12.497h353.28zM670.967 832h-317.934l-225.033-225.033v-317.934l225.033-225.033h317.934l225.033 225.033v317.934l-225.033 225.033zM481.83 350.17c16.662 16.662 43.677 16.662 60.34 0s16.662-43.677 0-60.34c-16.662-16.662-43.677-16.662-60.34 0s-16.662 43.677 0 60.34zM512 661.333c23.564 0 42.667-19.103 42.667-42.667v0-170.667c0-23.564-19.103-42.667-42.667-42.667s-42.667 19.103-42.667 42.667v0 170.667c0 23.564 19.103 42.667 42.667 42.667z" />
<glyph unicode="&#xe904;" glyph-name="alert-triangle" d="M531.073 874.667c44.742 0 86.236-23.362 109.562-61.819l361.733-603.896c22.743-39.386 22.879-87.881 0.357-127.394s-64.319-64.106-110.266-64.609h-723.242c-45.478 0.502-87.275 25.097-109.797 64.609s-22.386 88.008 0.703 127.983l361.387 603.307c23.327 38.457 64.821 61.819 109.562 61.819zM531.073 789.333c-14.881 0-28.685-7.753-36.429-20.455l-360.969-602.598c-7.581-13.129-7.626-29.294-0.119-42.465s21.44-21.369 36.13-21.535h722.304c15.159 0.167 29.092 8.365 36.599 21.535s7.462 29.336 0.228 41.875l-361.264 603.104c-7.735 12.751-21.566 20.539-36.48 20.539zM500.903 303.119c16.662 16.662 43.677 16.662 60.34 0s16.662-43.677 0-60.34c-16.662-16.662-43.677-16.662-60.34 0s-16.662 43.677 0 60.34zM531.073 614.283c23.564 0 42.667-19.103 42.667-42.667v0-170.667c0-23.564-19.103-42.667-42.667-42.667s-42.667 19.103-42.667 42.667v0 170.667c0 23.564 19.103 42.667 42.667 42.667z" />
<glyph unicode="&#xe905;" glyph-name="align-center" d="M768 234.667c23.564 0 42.667-19.103 42.667-42.667s-19.103-42.667-42.667-42.667v0h-512c-23.564 0-42.667 19.103-42.667 42.667s19.103 42.667 42.667 42.667v0zM896 405.333c23.564 0 42.667-19.103 42.667-42.667s-19.103-42.667-42.667-42.667v0h-768c-23.564 0-42.667 19.103-42.667 42.667s19.103 42.667 42.667 42.667v0zM768 576c23.564 0 42.667-19.103 42.667-42.667s-19.103-42.667-42.667-42.667v0h-512c-23.564 0-42.667 19.103-42.667 42.667s19.103 42.667 42.667 42.667v0zM896 746.667c23.564 0 42.667-19.103 42.667-42.667s-19.103-42.667-42.667-42.667v0h-768c-23.564 0-42.667 19.103-42.667 42.667s19.103 42.667 42.667 42.667v0z" />
<glyph unicode="&#xe906;" glyph-name="align-justify" d="M896 234.667c23.564 0 42.667-19.103 42.667-42.667s-19.103-42.667-42.667-42.667v0h-768c-23.564 0-42.667 19.103-42.667 42.667s19.103 42.667 42.667 42.667v0zM896 405.333c23.564 0 42.667-19.103 42.667-42.667s-19.103-42.667-42.667-42.667v0h-768c-23.564 0-42.667 19.103-42.667 42.667s19.103 42.667 42.667 42.667v0zM896 576c23.564 0 42.667-19.103 42.667-42.667s-19.103-42.667-42.667-42.667v0h-768c-23.564 0-42.667 19.103-42.667 42.667s19.103 42.667 42.667 42.667v0zM896 746.667c23.564 0 42.667-19.103 42.667-42.667s-19.103-42.667-42.667-42.667v0h-768c-23.564 0-42.667 19.103-42.667 42.667s19.103 42.667 42.667 42.667v0z" />
<glyph unicode="&#xe907;" glyph-name="align-left" d="M725.333 234.667c23.564 0 42.667-19.103 42.667-42.667s-19.103-42.667-42.667-42.667v0h-597.333c-23.564 0-42.667 19.103-42.667 42.667s19.103 42.667 42.667 42.667v0zM896 405.333c23.564 0 42.667-19.103 42.667-42.667s-19.103-42.667-42.667-42.667v0h-768c-23.564 0-42.667 19.103-42.667 42.667s19.103 42.667 42.667 42.667v0zM725.333 576c23.564 0 42.667-19.103 42.667-42.667s-19.103-42.667-42.667-42.667v0h-597.333c-23.564 0-42.667 19.103-42.667 42.667s19.103 42.667 42.667 42.667v0zM896 746.667c23.564 0 42.667-19.103 42.667-42.667s-19.103-42.667-42.667-42.667v0h-768c-23.564 0-42.667 19.103-42.667 42.667s19.103 42.667 42.667 42.667v0z" />
<glyph unicode="&#xe908;" glyph-name="align-right" d="M896 234.667c23.564 0 42.667-19.103 42.667-42.667s-19.103-42.667-42.667-42.667v0h-597.333c-23.564 0-42.667 19.103-42.667 42.667s19.103 42.667 42.667 42.667v0zM896 405.333c23.564 0 42.667-19.103 42.667-42.667s-19.103-42.667-42.667-42.667v0h-768c-23.564 0-42.667 19.103-42.667 42.667s19.103 42.667 42.667 42.667v0zM896 576c23.564 0 42.667-19.103 42.667-42.667s-19.103-42.667-42.667-42.667v0h-597.333c-23.564 0-42.667 19.103-42.667 42.667s19.103 42.667 42.667 42.667v0zM896 746.667c23.564 0 42.667-19.103 42.667-42.667s-19.103-42.667-42.667-42.667v0h-768c-23.564 0-42.667 19.103-42.667 42.667s19.103 42.667 42.667 42.667v0z" />
<glyph unicode="&#xe909;" glyph-name="anchor" d="M512 917.333c94.257 0 170.667-76.41 170.667-170.667 0-79.512-54.374-146.324-127.968-165.282l-0.010-515.039c177.978 19.685 319.292 161.006 338.967 338.987v0h-82.99c-23.564 0-42.667 19.103-42.667 42.667s19.103 42.667 42.667 42.667v0h128c23.564 0 42.667-19.103 42.667-42.667 0-259.206-210.128-469.333-469.333-469.333v0l-12.305 0.158c-253.518 6.525-457.028 214.084-457.028 469.175 0 23.564 19.103 42.667 42.667 42.667v0h128c23.564 0 42.667-19.103 42.667-42.667s-19.103-42.667-42.667-42.667v0h-82.99c19.676-177.996 161.011-319.325 339.010-338.992l-0.010 515.033c-73.615 18.942-128.010 85.765-128.010 165.293 0 94.257 76.41 170.667 170.667 170.667zM512 832c-47.128 0-85.333-38.205-85.333-85.333s38.205-85.333 85.333-85.333c47.128 0 85.333 38.205 85.333 85.333s-38.205 85.333-85.333 85.333z" />
<glyph unicode="&#xe90a;" glyph-name="aperture" d="M512 917.333c16.928 0 33.646-0.896 50.11-2.644 1.929-0.074 3.859-0.31 5.777-0.681 167.154-19.802 307.372-127.483 373.193-275.554 0.706-1.379 1.365-2.821 1.942-4.304 24.634-57.088 38.31-120.023 38.31-186.151 0-103.166-33.286-198.557-89.705-276.020-1.19-1.99-2.585-3.87-4.142-5.636-85.639-113.955-221.954-187.677-375.487-187.677-16.928 0-33.646 0.896-50.11 2.644-1.929 0.074-3.859 0.31-5.777 0.681-167.235 19.812-307.506 127.587-373.288 275.767-0.863 1.67-1.626 3.42-2.272 5.227-24.386 56.769-37.886 119.315-37.886 185.015 0 103.166 33.286 198.557 89.705 276.020 1.19 1.99 2.585 3.87 4.142 5.636 85.639 113.955 221.954 187.677 375.487 187.677zM709.077 362.709l-171.952-297.9c106.668 6.889 201.473 57.332 266.815 133.727l-94.863 164.174zM536.619 234.667l-343.921-0.052c56.486-84.356 145.514-145.082 249.121-164.217l94.799 164.268zM874.156 575.982l-189.697 0.018 172.005-297.901c25.312 51.221 39.536 108.9 39.536 169.901 0 44.875-7.697 87.952-21.844 127.982zM659.84 448.043l-73.899 127.957h-147.925l-73.899-127.957 73.941-128.043h147.84l73.941 128.043zM128 448c0-44.891 7.703-87.982 21.859-128.025l189.682 0.025-172.005 297.901c-25.312-51.221-39.536-108.9-39.536-169.901zM220.060 697.464l94.82-164.131 171.995 297.858c-106.668-6.889-201.473-57.332-266.815-133.727zM582.181 825.602l-94.885-164.268 344.034 0.009c-56.484 84.378-145.525 145.121-249.15 164.259z" />
<glyph unicode="&#xe90b;" glyph-name="Apple-Podcast" d="M524.846 721.541c125.047 5.117 228.323-100.528 228.323-231.104 0-66.467-26.724-126.362-69.407-168.6-3.62-3.562-5.574-8.678-5.288-13.895 0.857-15.902 0.524-31.302-0.476-48.759-0.286-4.665 4.668-7.575 8.336-4.966 71.598 51.518 118.711 138.151 118.711 236.221 0 161.377-127.667 292.003-282.248 285.682-143.673-5.869-258.954-130.626-260.764-281.97-1.191-99.575 46.16-187.763 118.711-239.933 3.62-2.659 8.575 0.301 8.289 4.966-1 17.457-1.286 32.857-0.476 48.759 0.286 5.217-1.667 10.284-5.288 13.845-44.016 43.542-71.074 105.996-69.359 174.871 3.049 121.195 95.845 220.168 210.936 224.884zM532.134 917.331c-220.606-0.604-401.34-189.069-404.103-421.377-2.191-188.214 111.899-349.139 271.149-408.182 3.859-1.405 7.812 1.956 7.193 6.22-2.096 14.598-4.049 29.296-5.859 43.743-0.667 5.117-3.716 9.531-8.194 11.588-125.904 57.889-213.842 190.823-212.413 344.875 1.858 202.109 158.583 366.897 350.512 368.502 196.216 1.706 356.371-165.891 356.371-372.114 0-152.548-87.509-283.876-212.46-341.314-4.478-2.057-7.527-6.471-8.194-11.588-1.763-14.397-3.763-29.095-5.859-43.693-0.572-4.264 3.335-7.625 7.193-6.22 157.773 58.441 271.196 216.908 271.196 402.814 0 235.719-182.497 427.445-406.533 426.744zM439.004 525.35c0-54.879 42.206-99.324 94.321-99.324 52.067 0 94.321 44.445 94.321 99.324s-42.254 99.324-94.321 99.324c-52.115 0-94.321-44.445-94.321-99.324zM616.785 354.292c-17.292 19.213-47.684 31.503-83.555 31.503s-66.215-12.29-83.555-31.503c-9.003-10.033-13.767-20.366-15.244-35.014-2.953-28.342-1.286-52.722 1.858-91.8 3.001-37.171 8.718-86.783 16.149-137.298 5.288-35.967 9.623-55.331 13.529-69.276 6.336-22.523 30.106-42.238 67.263-42.238s60.927 19.714 67.263 42.238c3.954 13.946 8.241 33.309 13.529 69.276 7.479 50.515 13.148 100.127 16.149 137.298 3.192 39.078 4.811 63.457 1.905 91.8-1.524 14.648-6.288 24.982-15.291 35.014z" />
<glyph unicode="&#xe90c;" glyph-name="arrow-down" d="M512 832c23.564 0 42.667-19.103 42.667-42.667v0-579.627l183.163 183.13c15.381 15.381 39.583 16.564 56.32 3.549l4.020-3.549c16.662-16.662 16.662-43.677 0-60.34v0l-256-256c-1.215-1.215-2.502-2.356-3.855-3.418-0.295-0.235-0.604-0.471-0.915-0.702-1.032-0.761-2.092-1.477-3.185-2.145-0.514-0.318-1.035-0.622-1.562-0.913-0.843-0.464-1.714-0.909-2.601-1.323-0.725-0.34-1.464-0.66-2.209-0.957-0.843-0.337-1.687-0.644-2.543-0.925-0.635-0.206-1.292-0.403-1.952-0.585-0.92-0.256-1.845-0.478-2.782-0.669-0.743-0.148-1.487-0.279-2.233-0.39-2.052-0.31-4.175-0.47-6.335-0.47l3.636 0.154c-0.738-0.063-1.478-0.106-2.218-0.131l-1.419-0.023c-0.475 0-0.948 0.008-1.419 0.023-0.726 0.024-1.494 0.069-2.261 0.135-0.924 0.078-1.805 0.182-2.676 0.312-0.725 0.111-1.468 0.242-2.209 0.393-0.94 0.188-1.865 0.409-2.778 0.661-0.667 0.187-1.323 0.384-1.976 0.598-0.839 0.272-1.683 0.579-2.514 0.912-0.757 0.303-1.495 0.622-2.226 0.963-0.882 0.414-1.752 0.858-2.605 1.331-0.517 0.283-1.038 0.586-1.554 0.901-1.091 0.671-2.151 1.386-3.177 2.147-1.671 1.237-3.266 2.611-4.776 4.121l3.855-3.418c-1.353 1.062-2.641 2.203-3.855 3.418l-256 256c-16.662 16.662-16.662 43.677 0 60.34s43.677 16.662 60.34 0v0l183.163-183.13v579.627c0 21.881 16.471 39.915 37.691 42.38z" />
<glyph unicode="&#xe90d;" glyph-name="arrow-down-left" d="M737.83 734.17c16.662 16.662 43.677 16.662 60.34 0s16.662-43.677 0-60.34v0l-439.173-439.163h281.003c21.881 0 39.915-16.471 42.38-37.691l0.287-4.976c0-23.564-19.103-42.667-42.667-42.667v0h-384c-0.475 0-0.948 0.008-1.419 0.023-0.726 0.024-1.494 0.069-2.261 0.135-0.924 0.078-1.805 0.182-2.676 0.312-0.725 0.111-1.468 0.242-2.209 0.393-0.94 0.188-1.865 0.409-2.778 0.661-0.667 0.187-1.323 0.384-1.976 0.598-0.839 0.272-1.683 0.579-2.514 0.912-0.757 0.303-1.495 0.622-2.226 0.963-0.882 0.414-1.752 0.858-2.605 1.331-0.517 0.283-1.038 0.586-1.554 0.901-1.091 0.671-2.151 1.386-3.177 2.147-1.671 1.237-3.266 2.611-4.776 4.121l3.855-3.418c-2.706 2.123-5.15 4.567-7.273 7.273-0.235 0.295-0.471 0.604-0.702 0.915-0.761 1.032-1.477 2.092-2.145 3.185-0.318 0.514-0.622 1.035-0.913 1.562-0.464 0.843-0.909 1.714-1.323 2.601-0.34 0.725-0.66 1.464-0.957 2.209-0.337 0.843-0.644 1.687-0.925 2.543-0.206 0.635-0.403 1.292-0.585 1.952-0.256 0.92-0.478 1.845-0.669 2.782-0.148 0.743-0.279 1.487-0.39 2.233-0.31 2.052-0.47 4.175-0.47 6.335l0.169-3.808c-0.088 0.992-0.142 1.987-0.161 2.982l-0.008 0.826v384c0 23.564 19.103 42.667 42.667 42.667s42.667-19.103 42.667-42.667v0-280.917z" />
<glyph unicode="&#xe90e;" glyph-name="arrow-down-right" d="M225.83 734.17c16.662 16.662 43.677 16.662 60.34 0v0l439.163-439.13v280.96c0 21.881 16.471 39.915 37.691 42.38l4.976 0.287c23.564 0 42.667-19.103 42.667-42.667v0-384c0-0.479-0.008-0.956-0.024-1.431-0.024-0.728-0.068-1.467-0.131-2.205-0.078-0.932-0.183-1.83-0.316-2.719-0.111-0.725-0.242-1.468-0.393-2.209-0.188-0.94-0.409-1.865-0.661-2.778-0.187-0.667-0.384-1.323-0.598-1.976-0.272-0.839-0.579-1.683-0.912-2.514-0.303-0.757-0.622-1.495-0.963-2.226-0.414-0.882-0.858-1.752-1.331-2.605-0.283-0.517-0.586-1.038-0.901-1.554-0.671-1.091-1.386-2.151-2.147-3.177-1.237-1.671-2.611-3.266-4.121-4.776l3.418 3.855c-2.123-2.706-4.567-5.15-7.273-7.273-0.295-0.235-0.604-0.471-0.915-0.702-1.032-0.761-2.092-1.477-3.185-2.145-0.514-0.318-1.035-0.622-1.562-0.913-0.843-0.464-1.714-0.909-2.601-1.323-0.725-0.34-1.464-0.66-2.209-0.957-0.843-0.337-1.687-0.644-2.543-0.925-0.635-0.206-1.292-0.403-1.952-0.585-0.92-0.256-1.845-0.478-2.782-0.669-0.743-0.148-1.487-0.279-2.233-0.39-2.052-0.31-4.175-0.47-6.335-0.47l3.636 0.154c-0.738-0.063-1.478-0.106-2.218-0.131l-1.419-0.023h-384c-23.564 0-42.667 19.103-42.667 42.667s19.103 42.667 42.667 42.667v0h280.96l-439.13 439.163c-15.381 15.381-16.564 39.583-3.549 56.32z" />
<glyph unicode="&#xe90f;" glyph-name="arrow-left" d="M396.497 734.17c16.662 16.662 43.677 16.662 60.34 0s16.662-43.677 0-60.34v0l-183.173-183.163h579.669c21.881 0 39.915-16.471 42.38-37.691l0.287-4.976c0-23.564-19.103-42.667-42.667-42.667v0h-579.669l183.173-183.163c15.381-15.381 16.564-39.583 3.549-56.32l-3.549-4.020c-16.662-16.662-43.677-16.662-60.34 0v0l-256 256-3.123 3.484c-0.099 0.123-0.197 0.247-0.295 0.371-0.235 0.295-0.471 0.604-0.702 0.915-0.761 1.032-1.477 2.092-2.145 3.185-0.318 0.514-0.622 1.035-0.913 1.562-0.464 0.843-0.909 1.714-1.323 2.601-0.34 0.725-0.66 1.464-0.957 2.209-0.337 0.843-0.644 1.687-0.925 2.543-0.206 0.635-0.403 1.292-0.585 1.952-0.256 0.92-0.478 1.845-0.669 2.782-0.148 0.743-0.279 1.487-0.39 2.233-0.31 2.052-0.47 4.175-0.47 6.335l0.169-3.808c-0.088 0.992-0.142 1.987-0.161 2.982l-0.008 0.826c0 0.273 0.003 0.546 0.008 0.818 0.018 0.975 0.072 1.984 0.162 2.99 0.077 0.879 0.177 1.717 0.301 2.548 0.111 0.725 0.242 1.468 0.393 2.209 0.188 0.94 0.409 1.865 0.661 2.778 0.187 0.667 0.384 1.323 0.598 1.976 0.272 0.839 0.579 1.683 0.912 2.514 0.303 0.757 0.622 1.495 0.963 2.226 0.414 0.882 0.858 1.752 1.331 2.605 0.283 0.517 0.586 1.038 0.901 1.554 0.671 1.091 1.386 2.151 2.147 3.177 1.237 1.671 2.611 3.266 4.121 4.776l-3.418-3.855c1.062 1.353 2.203 2.641 3.418 3.855z" />
<glyph unicode="&#xe910;" glyph-name="arrow-right" d="M567.163 734.17c16.662 16.662 43.677 16.662 60.34 0v0l256-256c1.215-1.215 2.356-2.502 3.418-3.855 0.235-0.295 0.471-0.604 0.702-0.915 0.761-1.032 1.477-2.092 2.145-3.185 0.318-0.514 0.622-1.035 0.913-1.562 0.464-0.843 0.909-1.714 1.323-2.601 0.34-0.725 0.66-1.464 0.957-2.209 0.337-0.843 0.644-1.687 0.925-2.543 0.206-0.635 0.403-1.292 0.585-1.952 0.256-0.92 0.478-1.845 0.669-2.782 0.148-0.743 0.279-1.487 0.39-2.233 0.31-2.052 0.47-4.175 0.47-6.335l-0.154 3.636c0.063-0.738 0.106-1.478 0.131-2.218l0.023-1.419c0-0.475-0.008-0.948-0.023-1.419-0.024-0.726-0.069-1.494-0.135-2.261-0.078-0.924-0.182-1.805-0.312-2.676-0.111-0.725-0.242-1.468-0.393-2.209-0.188-0.94-0.409-1.865-0.661-2.778-0.187-0.667-0.384-1.323-0.598-1.976-0.272-0.839-0.579-1.683-0.912-2.514-0.303-0.757-0.622-1.495-0.963-2.226-0.414-0.882-0.858-1.752-1.331-2.605-0.283-0.517-0.586-1.038-0.901-1.554-0.671-1.091-1.386-2.151-2.147-3.177-1.237-1.671-2.611-3.266-4.121-4.776l3.418 3.855c-0.097-0.124-0.196-0.248-0.295-0.371l-3.123-3.484-256-256c-16.662-16.662-43.677-16.662-60.34 0s-16.662 43.677 0 60.34v0l183.13 183.206-579.627-0.043c-21.881 0-39.915 16.471-42.38 37.691l-0.287 4.976c0 23.564 19.103 42.667 42.667 42.667v0l579.627 0.043-183.13 183.121c-15.381 15.381-16.564 39.583-3.549 56.32z" />
<glyph unicode="&#xe911;" glyph-name="arrow-up" d="M512 832c0.276 0 0.551-0.003 0.825-0.008 0.996-0.019 1.991-0.073 2.983-0.161 0.872-0.076 1.714-0.176 2.548-0.301 0.725-0.111 1.468-0.242 2.209-0.393 0.94-0.188 1.865-0.409 2.778-0.661 0.667-0.187 1.323-0.384 1.976-0.598 0.839-0.272 1.683-0.579 2.514-0.912 0.757-0.303 1.495-0.622 2.226-0.963 0.882-0.414 1.752-0.858 2.605-1.331 0.517-0.283 1.038-0.586 1.554-0.901 1.091-0.671 2.151-1.386 3.177-2.147 1.671-1.237 3.266-2.611 4.776-4.121l-3.855 3.418c0.124-0.098 0.248-0.196 0.371-0.295l3.484-3.123 256-256c16.662-16.662 16.662-43.677 0-60.34s-43.677-16.662-60.34 0v0l-183.163 183.173v-579.669c0-21.881-16.471-39.915-37.691-42.38l-4.976-0.287c-23.564 0-42.667 19.103-42.667 42.667v0 579.669l-183.163-183.173c-15.381-15.381-39.583-16.564-56.32-3.549l-4.020 3.549c-16.662 16.662-16.662 43.677 0 60.34v0l256 256 3.484 3.123c0.123 0.099 0.247 0.197 0.371 0.295 0.295 0.235 0.604 0.471 0.915 0.702 1.032 0.761 2.092 1.477 3.185 2.145 0.514 0.318 1.035 0.622 1.562 0.913 0.843 0.464 1.714 0.909 2.601 1.323 0.725 0.34 1.464 0.66 2.209 0.957 0.843 0.337 1.687 0.644 2.543 0.925 0.635 0.206 1.292 0.403 1.952 0.585 0.92 0.256 1.845 0.478 2.782 0.669 0.743 0.148 1.487 0.279 2.233 0.39 2.052 0.31 4.175 0.47 6.335 0.47l-3.808-0.169c1.006 0.090 2.015 0.144 3.025 0.162z" />
<glyph unicode="&#xe912;" glyph-name="arrow-up-left" d="M798.17 161.83c-16.662-16.662-43.677-16.662-60.34 0v0l-439.163 439.13v-280.96c0-21.881-16.471-39.915-37.691-42.38l-4.976-0.287c-23.564 0-42.667 19.103-42.667 42.667v0 384c0 0.479 0.008 0.956 0.024 1.431 0.024 0.728 0.068 1.467 0.131 2.205 0.078 0.932 0.183 1.83 0.316 2.719 0.111 0.725 0.242 1.468 0.393 2.209 0.188 0.94 0.409 1.865 0.661 2.778 0.187 0.667 0.384 1.323 0.598 1.976 0.272 0.839 0.579 1.683 0.912 2.514 0.303 0.757 0.622 1.495 0.963 2.226 0.414 0.882 0.858 1.752 1.331 2.605 0.283 0.517 0.586 1.038 0.901 1.554 0.671 1.091 1.386 2.151 2.147 3.177 1.237 1.671 2.611 3.266 4.121 4.776l-3.418-3.855c2.123 2.706 4.567 5.15 7.273 7.273 0.295 0.235 0.604 0.471 0.915 0.702 1.032 0.761 2.092 1.477 3.185 2.145 0.514 0.318 1.035 0.622 1.562 0.913 0.843 0.464 1.714 0.909 2.601 1.323 0.725 0.34 1.464 0.66 2.209 0.957 0.843 0.337 1.687 0.644 2.543 0.925 0.635 0.206 1.292 0.403 1.952 0.585 0.92 0.256 1.845 0.478 2.782 0.669 0.743 0.148 1.487 0.279 2.233 0.39 2.052 0.31 4.175 0.47 6.335 0.47l-3.636-0.154c0.738 0.063 1.478 0.106 2.218 0.131l1.419 0.023h384c23.564 0 42.667-19.103 42.667-42.667s-19.103-42.667-42.667-42.667v0h-280.96l439.13-439.163c15.381-15.381 16.564-39.583 3.549-56.32z" />
<glyph unicode="&#xe913;" glyph-name="arrow-up-right" d="M768 746.667c0.276 0 0.551-0.003 0.825-0.008 0.996-0.019 1.991-0.073 2.983-0.161 0.872-0.076 1.714-0.176 2.548-0.301 0.725-0.111 1.468-0.242 2.209-0.393 0.94-0.188 1.865-0.409 2.778-0.661 0.667-0.187 1.323-0.384 1.976-0.598 0.839-0.272 1.683-0.579 2.514-0.912 0.757-0.303 1.495-0.622 2.226-0.963 0.882-0.414 1.752-0.858 2.605-1.331 0.517-0.283 1.038-0.586 1.554-0.901 1.091-0.671 2.151-1.386 3.177-2.147 1.671-1.237 3.266-2.611 4.776-4.121l-3.855 3.418c2.706-2.123 5.15-4.567 7.273-7.273 0.235-0.295 0.471-0.604 0.702-0.915 0.761-1.032 1.477-2.092 2.145-3.185 0.318-0.514 0.622-1.035 0.913-1.562 0.464-0.843 0.909-1.714 1.323-2.601 0.34-0.725 0.66-1.464 0.957-2.209 0.337-0.843 0.644-1.687 0.925-2.543 0.206-0.635 0.403-1.292 0.585-1.952 0.256-0.92 0.478-1.845 0.669-2.782 0.148-0.743 0.279-1.487 0.39-2.233 0.31-2.052 0.47-4.175 0.47-6.335l-0.158 3.679c0.066-0.767 0.111-1.534 0.136-2.303l0.022-1.376v-384c0-23.564-19.103-42.667-42.667-42.667s-42.667 19.103-42.667 42.667v0 281.003l-439.163-439.173c-15.381-15.381-39.583-16.564-56.32-3.549l-4.020 3.549c-16.662 16.662-16.662 43.677 0 60.34v0l439.087 439.163h-280.917c-21.881 0-39.915 16.471-42.38 37.691l-0.287 4.976c0 23.564 19.103 42.667 42.667 42.667v0z" />
<glyph unicode="&#xe914;" glyph-name="at-sign" d="M91.189 655.723c96.552 195.568 315.105 298.85 527.502 249.283s362.657-238.919 362.671-457.026v0-42.667c0-94.257-76.41-170.667-170.667-170.667-57.385 0-108.155 28.322-139.094 71.75-39.071-44.016-96.083-71.75-159.572-71.75-117.821 0-213.333 95.513-213.333 213.333s95.513 213.333 213.333 213.333c114.72 0 208.291-90.552 213.136-204.079l0.197-9.254v-42.667c0-47.128 38.205-85.333 85.333-85.333s85.333 38.205 85.333 85.333v0 42.664c-0.011 178.448-122.952 333.373-296.731 373.928s-352.595-43.949-431.592-203.959c-78.997-160.010-37.356-353.354 100.507-466.658s335.611-116.704 477.288-8.207c18.708 14.327 45.489 10.775 59.816-7.933s10.775-45.489-7.933-59.816c-173.161-132.607-414.853-128.451-583.352 10.031s-219.394 374.791-122.842 570.359zM512.028 575.981c-70.692 0-128-57.308-128-128s57.308-128 128-128c70.692 0 128 57.308 128 128s-57.308 128-128 128z" />
<glyph unicode="&#xe915;" glyph-name="award" d="M512 960c188.513 0 341.333-152.82 341.333-341.333 0-110.492-52.5-208.722-133.915-271.105l48.211-363.283c4.699-35.418-33.611-60.58-64.248-42.198v0l-191.382 114.829-191.382-114.829c-30.639-18.384-68.952 6.784-64.247 42.204v0l48.253 363.245c-81.439 62.382-133.957 160.627-133.957 271.138 0 188.513 152.82 341.333 341.333 341.333zM512 277.333c-45.021 0-88.006 8.716-127.36 24.553l-32.024-241.093 137.432 82.459c13.512 8.107 30.392 8.107 43.904 0v0l137.446-82.467-31.995 241.118c-39.366-15.848-82.366-24.57-127.403-24.57zM512 874.667c-141.385 0-256-114.615-256-256s114.615-256 256-256c50.030 0 96.709 14.352 136.143 39.163 1.784 1.469 3.737 2.705 5.794 3.78 68.766 45.871 114.063 124.174 114.063 213.057 0 141.385-114.615 256-256 256z" />
<glyph unicode="&#xe916;" glyph-name="bar-chart" d="M938.667 874.667c23.564 0 42.667-19.103 42.667-42.667v-768c0-23.564-19.103-42.667-42.667-42.667h-170.667c-23.564 0-42.667 19.103-42.667 42.667v768c0 23.564 19.103 42.667 42.667 42.667h170.667zM597.333 661.333c23.564 0 42.667-19.103 42.667-42.667v-554.667c0-23.564-19.103-42.667-42.667-42.667h-170.667c-23.564 0-42.667 19.103-42.667 42.667v554.667c0 23.564 19.103 42.667 42.667 42.667h170.667zM256 448c23.564 0 42.667-19.103 42.667-42.667v-341.333c0-23.564-19.103-42.667-42.667-42.667h-170.667c-23.564 0-42.667 19.103-42.667 42.667v341.333c0 23.564 19.103 42.667 42.667 42.667h170.667zM896 789.333h-85.333v-682.667h85.333v682.667zM554.667 576h-85.333v-469.333h85.333v469.333zM213.333 362.667h-85.333v-256h85.333v256z" />
<glyph unicode="&#xe917;" glyph-name="bar-chart-2" d="M469.333 789.333v-682.667h85.333v682.667h-85.333zM597.333 874.667c23.564 0 42.667-19.103 42.667-42.667v-768c0-23.564-19.103-42.667-42.667-42.667h-170.667c-23.564 0-42.667 19.103-42.667 42.667v768c0 23.564 19.103 42.667 42.667 42.667h170.667zM938.667 661.333c23.564 0 42.667-19.103 42.667-42.667v-554.667c0-23.564-19.103-42.667-42.667-42.667h-170.667c-23.564 0-42.667 19.103-42.667 42.667v554.667c0 23.564 19.103 42.667 42.667 42.667h170.667zM256 448c23.564 0 42.667-19.103 42.667-42.667v-341.333c0-23.564-19.103-42.667-42.667-42.667h-170.667c-23.564 0-42.667 19.103-42.667 42.667v341.333c0 23.564 19.103 42.667 42.667 42.667h170.667zM896 576h-85.333v-469.333h85.333v469.333zM213.333 362.667h-85.333v-256h85.333v256z" />
<glyph unicode="&#xe918;" glyph-name="basket" d="M682.667 661.333h170.667v-512c0-70.692-57.308-128-128-128h-426.667c-70.692 0-128 57.308-128 128v512h170.667v42.667c0 94.257 76.41 170.667 170.667 170.667s170.667-76.41 170.667-170.667v-42.667zM341.333 576h-85.333v-426.667c0-23.564 19.103-42.667 42.667-42.667h426.667c23.564 0 42.667 19.103 42.667 42.667v426.667h-85.333v-128h-85.333v128h-170.667v-128h-85.333v128zM512 789.333c-47.128 0-85.333-38.205-85.333-85.333v-42.667h170.667v42.667c0 47.128-38.205 85.333-85.333 85.333z" />
<glyph unicode="&#xe919;" glyph-name="battery" d="M128 661.333c-23.564 0-42.667-19.103-42.667-42.667v-341.333c0-23.564 19.103-42.667 42.667-42.667h597.333c23.564 0 42.667 19.103 42.667 42.667v341.333c0 23.564-19.103 42.667-42.667 42.667h-597.333zM725.333 746.667c70.692 0 128-57.308 128-128v-341.333c0-70.692-57.308-128-128-128h-597.333c-70.692 0-128 57.308-128 128v341.333c0 70.692 57.308 128 128 128h597.333zM981.333 533.333c23.564 0 42.667-19.103 42.667-42.667v0-85.333c0-23.564-19.103-42.667-42.667-42.667s-42.667 19.103-42.667 42.667v0 85.333c0 23.564 19.103 42.667 42.667 42.667z" />
<glyph unicode="&#xe91a;" glyph-name="battery-charging" d="M213.333 234.662h-85.333c-23.564 0-42.667 19.103-42.667 42.667v341.333c0 23.564 19.103 42.667 42.667 42.667h136.107c23.564 0 42.667 19.103 42.667 42.667s-19.103 42.667-42.667 42.667h-136.107c-70.692 0-128-57.308-128-128v-341.333c0-70.692 57.308-128 128-128h85.333c23.564 0 42.667 19.103 42.667 42.667s-19.103 42.667-42.667 42.667zM725.333 746.662c70.692 0 128-57.308 128-128v0-341.333c0-70.692-57.308-128-128-128v0h-136.107c-23.564 0-42.667 19.103-42.667 42.667s19.103 42.667 42.667 42.667v0h136.107c23.564 0 42.667 19.103 42.667 42.667v0 341.333c0 23.564-19.103 42.667-42.667 42.667v0h-85.333c-23.564 0-42.667 19.103-42.667 42.667s19.103 42.667 42.667 42.667v0zM433.833 727.663c13.071 19.607 39.561 24.905 59.168 11.834s24.905-39.561 11.834-59.168v0l-126.444-189.666h176.277c34.078 0 54.404-37.98 35.501-66.334v0l-170.667-256c-13.071-19.607-39.561-24.905-59.168-11.834s-24.905 39.561-11.834 59.168v0l126.444 189.666h-176.277c-34.078 0-54.404 37.98-35.501 66.334v0zM981.333 533.329c23.564 0 42.667-19.103 42.667-42.667v0-85.333c0-23.564-19.103-42.667-42.667-42.667s-42.667 19.103-42.667 42.667v0 85.333c0 23.564 19.103 42.667 42.667 42.667z" />
<glyph unicode="&#xe91b;" glyph-name="bell" d="M768 362.667v213.333c0 141.385-114.615 256-256 256s-256-114.615-256-256v-213.333c0-31.086-8.311-60.231-22.832-85.333h557.664c-14.521 25.103-22.832 54.248-22.832 85.333zM938.667 192h-853.333c-56.889 0-56.889 85.333 0 85.333 47.128 0 85.333 38.205 85.333 85.333v213.333c0 188.513 152.82 341.333 341.333 341.333s341.333-152.82 341.333-341.333v-213.333c0-47.128 38.205-85.333 85.333-85.333 56.889 0 56.889-85.333 0-85.333zM622.72 42.591c-22.899-39.475-65.084-63.773-110.72-63.773s-87.821 24.298-110.72 63.773c-16.5 28.444 4.023 64.076 36.907 64.076h147.627c32.884 0 53.407-35.631 36.907-64.076z" />
<glyph unicode="&#xe91c;" glyph-name="bell-off" d="M386.194 799.108c79.282 44.736 176.356 44.005 254.955-1.92s126.898-130.134 126.851-221.166v-170.688c0-23.564 19.103-42.667 42.667-42.667s42.667 19.103 42.667 42.667v170.667c0.062 121.354-64.336 233.633-169.135 294.866s-234.231 62.207-339.94 2.56c-20.522-11.58-27.772-37.604-16.192-58.127s37.604-27.772 58.127-16.192zM12.497 947.503c16.662 16.662 43.677 16.662 60.34 0v0l938.667-938.667c16.662-16.662 16.662-43.677 0-60.34s-43.677-16.662-60.34 0v0l-243.537 243.503h-622.293c-54.927 0-56.821 79.55-5.682 85.036l5.682 0.297c47.128 0 85.333 38.205 85.333 85.333v0 213.28c-0.055 44.021 8.404 87.534 24.804 128.172l-182.974 183.045c-16.662 16.662-16.662 43.677 0 60.34zM548.907 85.409c11.824 20.383 37.933 27.322 58.316 15.498s27.322-37.933 15.498-58.316c-22.899-39.475-65.084-63.773-110.72-63.773s-87.821 24.298-110.72 63.773c-11.824 20.383-4.885 46.492 15.498 58.316s46.492 4.885 58.316-15.498l2.775-4.195c7.997-10.664 20.61-17.063 34.131-17.063 15.212 0 29.274 8.099 36.907 21.258zM622.293 277.333l-359.155 359.071c-4.751-19.701-7.164-39.973-7.139-60.404v0-213.333c0-31.086-8.311-60.231-22.832-85.333v0h389.125z" />
<glyph unicode="&#xe91d;" glyph-name="bluetooth" d="M576 81.588l131.66 131.66-131.66 131.66v-263.32zM707.66 682.581l-131.66 131.66v-263.32l131.66 131.66zM576 550.921v-206.013l-103.006 103.006 103.006 103.006zM328.837 183.078c-16.662-16.662-43.677-16.662-60.34 0s-16.662 43.677 0 60.34l204.497 204.497-204.497 204.497c-16.662 16.662-16.662 43.677 0 60.34s43.677 16.662 60.34 0l469.333-469.333c16.662-16.662 16.662-43.677 0-60.34l-234.667-234.667c-26.879-26.879-72.837-7.842-72.837 30.17v938.667c0 38.012 45.958 57.048 72.837 30.17l234.667-234.667c16.662-16.662 16.662-43.677 0-60.34l-469.333-469.333z" />
<glyph unicode="&#xe91e;" glyph-name="book" d="M853.333 917.333c23.564 0 42.667-19.103 42.667-42.667v-853.333c0-23.564-19.103-42.667-42.667-42.667h-576c-82.475 0-149.333 66.859-149.333 149.333v640c0 82.475 66.859 149.333 149.333 149.333h576zM810.667 192h-533.333c-35.346 0-64-28.654-64-64v0c0-35.346 28.654-64 64-64h533.333v128zM810.667 832h-533.333c-35.346 0-64-28.654-64-64l-0.001-505.038c19.398 9.215 41.097 14.371 64.001 14.371v0h533.333v554.667z" />
<glyph unicode="&#xe91f;" glyph-name="bookmark" d="M768 146.909v599.757c0 23.564-19.103 42.667-42.667 42.667h-426.667c-23.564 0-42.667-19.103-42.667-42.667v-599.757l231.201 165.143c14.835 10.596 34.764 10.596 49.599 0l231.201-165.143zM512 224.9l-273.867-195.619c-28.24-20.171-67.466 0.015-67.466 34.719v682.667c0 70.692 57.308 128 128 128h426.667c70.692 0 128-57.308 128-128v-682.667c0-34.704-39.226-54.891-67.466-34.719l-273.867 195.619z" />
<glyph unicode="&#xe920;" glyph-name="box" d="M568.963 946.628l341.333-170.667c43.498-21.615 71.014-65.988 71.040-114.583v-406.636c-0.026-48.572-27.542-92.945-70.946-114.513l-341.321-170.661c-36.056-18.042-78.504-18.042-114.548-0.006l-341.451 170.726c-43.456 21.896-70.739 66.54-70.404 114.903v406.209c0.029 48.572 27.545 92.945 70.949 114.513l341.428 170.714c35.88 17.829 78.040 17.829 113.92 0zM128 645.248l0.001-390.353c-0.112-16.22 8.982-31.101 23.35-38.341l317.982-158.997v417.024l-341.333 170.667zM896 645.248l-341.333-170.667v-416.768l317.656 158.788c14.499 7.205 23.671 21.996 23.68 38.164l-0.003 390.483zM493.111 870.256l-312.162-156.059 331.054-165.543 331.005 165.543-312.057 156.031c-11.952 5.924-25.987 5.917-37.84 0.028z" />
<glyph unicode="&#xe921;" glyph-name="briefcase" d="M170.667 21.333c-70.692 0-128 57.308-128 128v426.667c0 70.692 57.308 128 128 128h128v42.667c0 68.168 53.287 123.89 120.479 127.783l7.521 0.217h170.667c70.692 0 128-57.308 128-128v0-42.667h128c70.692 0 128-57.308 128-128v-426.667c0-70.692-57.308-128-128-128h-682.667zM298.667 618.667h-128c-23.564 0-42.667-19.103-42.667-42.667v-426.667c0-23.564 19.103-42.667 42.667-42.667h128v512zM640 618.667h-256v-512h256v512zM853.333 618.667h-128v-512h128c23.564 0 42.667 19.103 42.667 42.667v426.667c0 23.564-19.103 42.667-42.667 42.667zM597.333 789.333h-170.667c-23.564 0-42.667-19.103-42.667-42.667v0-42.667h256v42.667c0 21.881-16.471 39.915-37.691 42.38l-4.976 0.287z" />
<glyph unicode="&#xe922;" glyph-name="burger" d="M810.667 234.667c23.564 0 42.667-19.103 42.667-42.667s-19.103-42.667-42.667-42.667v0h-554.667c-23.564 0-42.667 19.103-42.667 42.667s19.103 42.667 42.667 42.667v0zM810.667 490.667c23.564 0 42.667-19.103 42.667-42.667s-19.103-42.667-42.667-42.667v0h-554.667c-23.564 0-42.667 19.103-42.667 42.667s19.103 42.667 42.667 42.667v0zM810.667 746.667c23.564 0 42.667-19.103 42.667-42.667s-19.103-42.667-42.667-42.667v0h-554.667c-23.564 0-42.667 19.103-42.667 42.667s19.103 42.667 42.667 42.667v0z" />
<glyph unicode="&#xe923;" glyph-name="calendar" d="M682.667 917.333c23.564 0 42.667-19.103 42.667-42.667v0-42.667h85.333c70.692 0 128-57.308 128-128v-597.333c0-70.692-57.308-128-128-128h-597.333c-70.692 0-128 57.308-128 128v597.333c0 70.692 57.308 128 128 128h85.333v42.667c0 21.881 16.471 39.915 37.691 42.38l4.976 0.287c23.564 0 42.667-19.103 42.667-42.667v0-42.667h256v42.667c0 21.881 16.471 39.915 37.691 42.38zM853.333 490.667h-682.667v-384c0-23.564 19.103-42.667 42.667-42.667h597.333c23.564 0 42.667 19.103 42.667 42.667v384zM298.667 746.667h-85.333c-23.564 0-42.667-19.103-42.667-42.667v-128h682.667v128c0 23.564-19.103 42.667-42.667 42.667h-85.333v-42.667c0-21.881-16.471-39.915-37.691-42.38l-4.976-0.287c-23.564 0-42.667 19.103-42.667 42.667v0 42.667h-256v-42.667c0-21.881-16.471-39.915-37.691-42.38l-4.976-0.287c-23.564 0-42.667 19.103-42.667 42.667v0 42.667z" />
<glyph unicode="&#xe924;" glyph-name="camera" d="M640 874.667c14.266 0 27.588-7.13 35.501-18.999l72.667-109.001h147.832c70.692 0 128-57.308 128-128v-469.333c0-70.692-57.308-128-128-128h-768c-70.692 0-128 57.308-128 128v469.333c0 70.692 57.308 128 128 128h147.832l72.667 109.001c7.913 11.87 21.235 18.999 35.501 18.999h256zM617.165 789.333h-210.331l-72.667-109.001c-7.913-11.87-21.235-18.999-35.501-18.999h-170.667c-23.564 0-42.667-19.103-42.667-42.667v-469.333c0-23.564 19.103-42.667 42.667-42.667h768c23.564 0 42.667 19.103 42.667 42.667v469.333c0 23.564-19.103 42.667-42.667 42.667h-170.667c-14.266 0-27.588 7.13-35.501 18.999l-72.667 109.001zM512 618.667c117.821 0 213.333-95.513 213.333-213.333s-95.513-213.333-213.333-213.333c-117.821 0-213.333 95.513-213.333 213.333s95.513 213.333 213.333 213.333zM512 533.333c-70.692 0-128-57.308-128-128s57.308-128 128-128c70.692 0 128 57.308 128 128s-57.308 128-128 128z" />
<glyph unicode="&#xe925;" glyph-name="camera-off" d="M12.497 947.503c16.662 16.662 43.677 16.662 60.34 0v0l938.667-938.667c16.662-16.662 16.662-43.677 0-60.34s-43.677-16.662-60.34 0v0l-72.87 72.837h-750.293c-68.168 0-123.89 53.287-127.783 120.479l-0.217 7.521v469.333c0 70.692 57.308 128 128 128v0h24.96l-140.463 140.497c-15.381 15.381-16.564 39.583-3.549 56.32zM238.293 661.333h-110.293c-23.564 0-42.667-19.103-42.667-42.667v0-469.333c0-23.564 19.103-42.667 42.667-42.667v0h664.96l-139.178 139.157c-47.106-42.379-111.387-62.144-175.374-52.208l-9.7 1.736c-84.005 17.031-149.66 82.686-166.691 166.691-13.613 67.143 5.95 135.587 50.472 185.073l-114.197 114.218zM640 874.667c14.266 0 27.588-7.13 35.501-18.999v0l72.667-109.001h147.832c70.692 0 128-57.308 128-128v0-398.507c0-23.564-19.103-42.667-42.667-42.667s-42.667 19.103-42.667 42.667v0 398.507c0 23.564-19.103 42.667-42.667 42.667v0h-170.667c-14.266 0-27.588 7.13-35.501 18.999v0l-72.667 109.001h-233.165c-23.564 0-42.667 19.103-42.667 42.667s19.103 42.667 42.667 42.667v0zM412.998 486.662c-24.629-29.384-35.21-68.886-27.348-107.665 10.219-50.403 49.611-89.796 100.015-100.015 38.779-7.862 78.28 2.72 107.665 27.348z" />
<glyph unicode="&#xe926;" glyph-name="cast" d="M76.816 231.261c67.048-13.674 119.446-66.072 133.12-133.12 4.709-23.089 27.243-37.989 50.332-33.28s37.989 27.243 33.28 50.332c-20.511 100.572-99.108 179.169-199.68 199.68-23.089 4.709-45.623-10.191-50.332-33.28s10.191-45.623 33.28-50.332zM80.625 403.461c158.639-17.644 283.867-142.872 301.511-301.511 2.605-23.42 23.702-40.294 47.122-37.689s40.294 23.702 37.689 47.122c-22.055 198.298-178.591 354.834-376.889 376.889-23.42 2.605-44.517-14.269-47.122-37.689s14.269-44.517 37.689-47.122zM128.008 618.667v85.333c0 23.564 19.103 42.667 42.667 42.667h682.667c23.564 0 42.667-19.103 42.667-42.667v-512c0-23.564-19.103-42.667-42.667-42.667h-256c-23.564 0-42.667-19.103-42.667-42.667s19.103-42.667 42.667-42.667h256c70.692 0 128 57.308 128 128v512c0 70.692-57.308 128-128 128h-682.667c-70.692 0-128-57.308-128-128v-85.333c0-23.564 19.103-42.667 42.667-42.667s42.667 19.103 42.667 42.667z" />
<glyph unicode="&#xe927;" glyph-name="check" d="M200.837 435.503c-16.662 16.662-43.677 16.662-60.34 0s-16.662-43.677 0-60.34l213.333-213.333c16.662-16.662 43.677-16.662 60.34 0l469.333 469.333c16.662 16.662 16.662 43.677 0 60.34s-43.677 16.662-60.34 0l-439.163-439.163-183.163 183.163z" />
<glyph unicode="&#xe928;" glyph-name="check-circle" d="M112.562 752.911c135.046 158.004 357.934 208.363 547.793 123.767 21.524-9.591 31.198-34.814 21.608-56.338s-34.814-31.198-56.338-21.608c-155.339 69.215-337.702 28.013-448.194-101.264s-122.794-315.83-30.233-458.496c92.561-142.665 267.934-207.457 431.017-159.238s275.025 197.96 275.122 367.997v0 39.68c0 23.564 19.103 42.667 42.667 42.667s42.667-19.103 42.667-42.667v0-39.704c-0.119-207.853-136.938-390.871-336.261-449.804s-413.668 20.256-526.798 194.625c-113.13 174.369-98.095 402.38 36.952 560.384zM908.499 861.902c16.662 16.662 43.677 16.662 60.34 0s16.662-43.677 0-60.34v0l-469.333-469.333c-16.662-16.662-43.677-16.662-60.34 0v0l-128 128c-16.662 16.662-16.662 43.677 0 60.34s43.677 16.662 60.34 0v0l97.83-97.83z" />
<glyph unicode="&#xe929;" glyph-name="check-square" d="M640 874.667c23.564 0 42.667-19.103 42.667-42.667s-19.103-42.667-42.667-42.667v0h-469.333c-23.564 0-42.667-19.103-42.667-42.667v0-597.333c0-23.564 19.103-42.667 42.667-42.667v0h597.333c23.564 0 42.667 19.103 42.667 42.667v0 298.667c0 23.564 19.103 42.667 42.667 42.667s42.667-19.103 42.667-42.667v0-298.667c0-70.692-57.308-128-128-128v0h-597.333c-70.692 0-128 57.308-128 128v0 597.333c0 70.692 57.308 128 128 128v0zM908.497 862.17c16.662 16.662 43.677 16.662 60.34 0s16.662-43.677 0-60.34v0l-469.333-469.333c-16.662-16.662-43.677-16.662-60.34 0v0l-128 128c-16.662 16.662-16.662 43.677 0 60.34s43.677 16.662 60.34 0v0l97.83-97.83z" />
<glyph unicode="&#xe92a;" glyph-name="chevron-down" d="M512 380.34l-225.83 225.83c-16.662 16.662-43.677 16.662-60.34 0s-16.662-43.677 0-60.34l256-256c16.662-16.662 43.677-16.662 60.34 0l256 256c16.662 16.662 16.662 43.677 0 60.34s-43.677 16.662-60.34 0l-225.83-225.83z" />
<glyph unicode="&#xe92b;" glyph-name="chevron-left" d="M444.34 448l225.83 225.83c16.662 16.662 16.662 43.677 0 60.34s-43.677 16.662-60.34 0l-256-256c-16.662-16.662-16.662-43.677 0-60.34l256-256c16.662-16.662 43.677-16.662 60.34 0s16.662 43.677 0 60.34l-225.83 225.83z" />
<glyph unicode="&#xe92c;" glyph-name="chevron-right" d="M579.66 448l-225.83-225.83c-16.662-16.662-16.662-43.677 0-60.34s43.677-16.662 60.34 0l256 256c16.662 16.662 16.662 43.677 0 60.34l-256 256c-16.662 16.662-43.677 16.662-60.34 0s-16.662-43.677 0-60.34l225.83-225.83z" />
<glyph unicode="&#xe92d;" glyph-name="chevrons-down" d="M268.497 435.503c16.662 16.662 43.677 16.662 60.34 0v0l183.163-183.163 183.163 183.163c16.662 16.662 43.677 16.662 60.34 0s16.662-43.677 0-60.34v0l-213.333-213.333c-16.662-16.662-43.677-16.662-60.34 0v0l-213.333 213.333c-16.662 16.662-16.662 43.677 0 60.34zM268.497 734.17c16.662 16.662 43.677 16.662 60.34 0v0l183.163-183.163 183.163 183.163c16.662 16.662 43.677 16.662 60.34 0s16.662-43.677 0-60.34v0l-213.333-213.333c-16.662-16.662-43.677-16.662-60.34 0v0l-213.333 213.333c-16.662 16.662-16.662 43.677 0 60.34z" />
<glyph unicode="&#xe92e;" glyph-name="chevrons-left" d="M439.163 691.503c16.662 16.662 43.677 16.662 60.34 0s16.662-43.677 0-60.34v0l-183.163-183.163 183.163-183.163c16.662-16.662 16.662-43.677 0-60.34s-43.677-16.662-60.34 0v0l-213.333 213.333c-16.662 16.662-16.662 43.677 0 60.34v0zM737.83 691.503c16.662 16.662 43.677 16.662 60.34 0s16.662-43.677 0-60.34v0l-183.163-183.163 183.163-183.163c16.662-16.662 16.662-43.677 0-60.34s-43.677-16.662-60.34 0v0l-213.333 213.333c-16.662 16.662-16.662 43.677 0 60.34v0z" />
<glyph unicode="&#xe92f;" glyph-name="chevrons-right" d="M524.497 691.503c16.662 16.662 43.677 16.662 60.34 0v0l213.333-213.333c16.662-16.662 16.662-43.677 0-60.34v0l-213.333-213.333c-16.662-16.662-43.677-16.662-60.34 0s-16.662 43.677 0 60.34v0l183.163 183.163-183.163 183.163c-16.662 16.662-16.662 43.677 0 60.34zM225.83 691.503c16.662 16.662 43.677 16.662 60.34 0v0l213.333-213.333c16.662-16.662 16.662-43.677 0-60.34v0l-213.333-213.333c-16.662-16.662-43.677-16.662-60.34 0s-16.662 43.677 0 60.34v0l183.163 183.163-183.163 183.163c-16.662 16.662-16.662 43.677 0 60.34z" />
<glyph unicode="&#xe930;" glyph-name="chevrons-up" d="M481.83 435.503c16.662 16.662 43.677 16.662 60.34 0v0l213.333-213.333c16.662-16.662 16.662-43.677 0-60.34s-43.677-16.662-60.34 0v0l-183.163 183.163-183.163-183.163c-16.662-16.662-43.677-16.662-60.34 0s-16.662 43.677 0 60.34v0zM481.83 734.17c16.662 16.662 43.677 16.662 60.34 0v0l213.333-213.333c16.662-16.662 16.662-43.677 0-60.34s-43.677-16.662-60.34 0v0l-183.163 183.163-183.163-183.163c-16.662-16.662-43.677-16.662-60.34 0s-16.662 43.677 0 60.34v0z" />
<glyph unicode="&#xe931;" glyph-name="chevron-up" d="M512 515.66l225.83-225.83c16.662-16.662 43.677-16.662 60.34 0s16.662 43.677 0 60.34l-256 256c-16.662 16.662-43.677 16.662-60.34 0l-256-256c-16.662-16.662-16.662-43.677 0-60.34s43.677-16.662 60.34 0l225.83 225.83z" />
<glyph unicode="&#xe932;" glyph-name="chrome" d="M512 917.333c191.484 0 356.185-114.673 429.176-279.092 0.132-0.258 0.271-0.534 0.407-0.811l1.729-4.075c24.468-56.861 38.021-119.525 38.021-185.355 0-259.206-210.128-469.333-469.333-469.333-16.928 0-33.646 0.896-50.11 2.644-1.935 0.075-3.854 0.309-5.762 0.678-232.877 27.601-413.461 225.718-413.461 466.012 0 103.223 33.323 198.663 89.799 276.149 1.205 2.017 2.616 3.9 4.189 5.667 85.634 113.869 221.889 187.517 375.345 187.517zM874.156 575.982l-191.48 0.026c26.785-35.656 42.657-79.979 42.657-128.008 0-41.479-11.838-80.193-32.319-112.948l-155.889-270.243c200.366 12.941 358.875 179.555 358.875 383.191 0 44.875-7.697 87.952-21.844 127.982zM128 448c0-188.092 135.234-344.599 313.777-377.594l95.637 165.758c-8.333-0.989-16.814-1.498-25.414-1.498-81.872 0-152.972 46.119-188.737 113.796l-155.706 269.481c-25.325-51.232-39.557-108.926-39.557-169.944zM512 576c-70.692 0-128-57.308-128-128 0-21.297 5.201-41.379 14.403-59.046l2.909-4.934c0.292-0.504 0.572-1.012 0.84-1.523 22.213-37.442 63.105-62.497 109.848-62.497 45.187 0 84.905 23.415 107.683 58.774l2.984 5.212c0.421 0.729 0.859 1.441 1.315 2.135 10.229 18.301 16.017 39.414 16.017 61.879 0 70.692-57.308 128-128 128zM512 832c-116.83 0-221.474-52.174-291.903-134.493l95.706-165.595c32.591 76.103 108.168 129.421 196.197 129.421l319.33 0.009c-68.887 102.906-186.197 170.657-319.33 170.657z" />
<glyph unicode="&#xe933;" glyph-name="circle" d="M512-21.333c-259.206 0-469.333 210.128-469.333 469.333s210.128 469.333 469.333 469.333c259.206 0 469.333-210.128 469.333-469.333s-210.128-469.333-469.333-469.333zM512 64c212.077 0 384 171.923 384 384s-171.923 384-384 384c-212.077 0-384-171.923-384-384s171.923-384 384-384z" />
<glyph unicode="&#xe934;" glyph-name="clipboard" d="M640 917.333c47.128 0 85.333-38.205 85.333-85.333h42.667c70.692 0 128-57.308 128-128v0-597.333c0-70.692-57.308-128-128-128v0h-512c-70.692 0-128 57.308-128 128v0 597.333c0 70.692 57.308 128 128 128v0h42.667c0 47.128 38.205 85.333 85.333 85.333h256zM298.667 746.667h-42.667c-23.564 0-42.667-19.103-42.667-42.667v0-597.333c0-23.564 19.103-42.667 42.667-42.667v0h512c23.564 0 42.667 19.103 42.667 42.667v0 597.333c0 23.564-19.103 42.667-42.667 42.667v0h-42.667c0-47.128-38.205-85.333-85.333-85.333h-256c-47.128 0-85.333 38.205-85.333 85.333zM640 832h-256v-85.333h256v85.333z" />
<glyph unicode="&#xe935;" glyph-name="clock" d="M512 917.333c259.206 0 469.333-210.128 469.333-469.333s-210.128-469.333-469.333-469.333c-259.206 0-469.333 210.128-469.333 469.333s210.128 469.333 469.333 469.333zM512 832c-212.077 0-384-171.923-384-384s171.923-384 384-384c212.077 0 384 171.923 384 384s-171.923 384-384 384zM512 746.667c23.564 0 42.667-19.103 42.667-42.667v0-238.327l115.503-115.503c16.662-16.662 16.662-43.677 0-60.34s-43.677-16.662-60.34 0v0l-128 128c-8.002 8.002-12.497 18.854-12.497 30.17v0 256c0 23.564 19.103 42.667 42.667 42.667z" />
<glyph unicode="&#xe936;" glyph-name="cloud" d="M768.272 575.953c141.385 0 256-114.615 256-256s-114.615-256-256-256h-383.968c-199.591-0.149-366.019 152.63-382.909 351.505s121.391 377.532 318.148 411.044c185.664 31.622 364.978-75.945 426.533-250.548h22.197zM768.272 490.619h-53.76c-19.456 0-36.448 13.162-41.312 32-38.809 150.308-186.297 245.825-339.33 219.76s-260.585-165.020-247.448-319.701c13.137-154.68 142.581-273.508 297.85-273.393h384c94.257 0 170.667 76.41 170.667 170.667s-76.41 170.667-170.667 170.667z" />
<glyph unicode="&#xe937;" glyph-name="cloud-drizzle" d="M512.274 106.675c23.564 0 42.667-19.103 42.667-42.667v0-85.333c0-23.564-19.103-42.667-42.667-42.667s-42.667 19.103-42.667 42.667v0 85.333c0 23.564 19.103 42.667 42.667 42.667zM341.608 192.008c23.564 0 42.667-19.103 42.667-42.667v0-85.333c0-23.564-19.103-42.667-42.667-42.667s-42.667 19.103-42.667 42.667v0 85.333c0 23.564 19.103 42.667 42.667 42.667zM682.941 192.008c23.564 0 42.667-19.103 42.667-42.667v0-85.333c0-23.564-19.103-42.667-42.667-42.667s-42.667 19.103-42.667 42.667v0 85.333c0 23.564 19.103 42.667 42.667 42.667zM512.274 362.675c23.564 0 42.667-19.103 42.667-42.667v0-85.333c0-23.564-19.103-42.667-42.667-42.667s-42.667 19.103-42.667 42.667v0 85.333c0 23.564 19.103 42.667 42.667 42.667zM25.35 713.143c59.678 156.073 213.433 255.64 380.262 246.245 155.612-8.763 289.277-110.449 340.455-255.38v0h22.258c121.108-0.143 225.546-85.131 250.296-203.683s-36.961-238.227-147.896-286.813c-21.585-9.453-46.746 0.381-56.2 21.966s0.381 46.746 21.966 56.2c73.957 32.39 115.097 112.174 98.597 191.209s-86.125 135.694-166.814 135.789v0h-53.76c-19.455 0-36.447 13.161-41.311 31.998-32.495 125.834-142.632 216.21-272.389 223.517s-249.343-70.134-295.76-191.524c-46.416-121.39-9.006-258.862 92.521-339.993 18.409-14.71 21.407-41.558 6.697-59.967s-41.558-21.407-59.967-6.697c-130.536 104.311-178.635 281.060-118.956 437.133zM341.608 448.008c23.564 0 42.667-19.103 42.667-42.667v0-85.333c0-23.564-19.103-42.667-42.667-42.667s-42.667 19.103-42.667 42.667v0 85.333c0 23.564 19.103 42.667 42.667 42.667zM682.941 448.008c23.564 0 42.667-19.103 42.667-42.667v0-85.333c0-23.564-19.103-42.667-42.667-42.667s-42.667 19.103-42.667 42.667v0 85.333c0 23.564 19.103 42.667 42.667 42.667z" />
<glyph unicode="&#xe938;" glyph-name="cloud-lightning" d="M519.166 514.334c13.071 19.607 39.561 24.905 59.168 11.834s24.905-39.561 11.834-59.168v0l-126.444-189.666h176.277c34.078 0 54.404-37.98 35.501-66.334v0l-170.667-256c-13.071-19.607-39.561-24.905-59.168-11.834s-24.905 39.561-11.834 59.168v0l126.444 189.666h-176.277c-34.078 0-54.404 37.98-35.501 66.334v0zM383.753 959.971c163.852 0 308.287-103.723 362.040-255.971v0h22.164c131.521 0.132 241.744-99.417 254.961-230.272s-74.871-250.436-203.761-276.608c-23.093-4.689-45.615 10.23-50.304 33.323s10.23 45.615 33.323 50.304c85.927 17.448 144.653 97.169 135.841 184.405s-82.294 153.603-170.017 153.515v0h-53.76c-19.455 0-36.446 13.16-41.311 31.996-34.057 131.854-152.994 223.975-289.176 223.975s-255.119-92.12-289.176-223.975c-34.057-131.854 25.392-270.050 144.539-336 20.617-11.412 28.079-37.376 16.667-57.992s-37.376-28.079-57.992-16.667c-153.19 84.792-229.624 262.473-185.836 432s196.707 287.967 371.798 287.967z" />
<glyph unicode="&#xe939;" glyph-name="cloud-off" d="M422.731 831.835c-23.473 2.073-44.182-15.274-46.255-38.747s15.274-44.182 38.747-46.255c126.413-11.166 231.966-100.999 263.2-224 4.804-18.919 21.835-32.165 41.354-32.165h53.76c57.326 0.068 110.816-28.599 142.476-76.329s37.267-108.158 14.929-160.898c-9.19-21.698 0.95-46.738 22.648-55.928s46.738 0.95 55.928 22.648c33.506 79.11 25.096 169.752-22.394 241.347s-127.725 114.595-213.638 114.493h-22.030c-49.374 141.464-177.429 242.47-328.725 255.835zM18.034 947.503c16.662 16.662 43.677 16.662 60.34 0v0l938.667-938.667c16.662-16.662 16.662-43.677 0-60.34s-43.677-16.662-60.34 0v0l-122.844 122.772c-19.702-4.797-39.944-7.245-60.319-7.269v0l-383.313 0.006c-176.252-2.84-331.802 114.684-377.221 285.008-40.574 152.152 16.047 311.524 138.56 404.605l-133.53 133.545c-16.662 16.662-16.662 43.677 0 60.34zM212.61 692.54c-101.753-71.235-149.731-199.38-117.155-321.54 35.326-132.474 156.309-223.882 294.082-221.667v0h366.303z" />
<glyph unicode="&#xe93a;" glyph-name="cloud-rain" d="M512.274 362.675c23.564 0 42.667-19.103 42.667-42.667v0-341.333c0-23.564-19.103-42.667-42.667-42.667s-42.667 19.103-42.667 42.667v0 341.333c0 23.564 19.103 42.667 42.667 42.667zM682.941 448.008c23.564 0 42.667-19.103 42.667-42.667v0-341.333c0-23.564-19.103-42.667-42.667-42.667s-42.667 19.103-42.667 42.667v0 341.333c0 23.564 19.103 42.667 42.667 42.667zM341.608 448.008c23.564 0 42.667-19.103 42.667-42.667v0-341.333c0-23.564-19.103-42.667-42.667-42.667s-42.667 19.103-42.667 42.667v0 341.333c0 23.564 19.103 42.667 42.667 42.667zM25.35 713.143c59.678 156.073 213.433 255.64 380.262 246.245 155.612-8.763 289.277-110.449 340.455-255.38v0h22.258c121.108-0.143 225.546-85.131 250.296-203.683s-36.961-238.227-147.896-286.813c-21.585-9.453-46.746 0.381-56.2 21.966s0.381 46.746 21.966 56.2c73.957 32.39 115.097 112.174 98.597 191.209s-86.125 135.694-166.814 135.789v0h-53.76c-19.455 0-36.447 13.161-41.311 31.998-32.495 125.834-142.632 216.21-272.389 223.517s-249.343-70.134-295.76-191.524c-46.416-121.39-9.006-258.862 92.521-339.993 18.409-14.71 21.407-41.558 6.697-59.967s-41.558-21.407-59.967-6.697c-130.536 104.311-178.635 281.060-118.956 437.133z" />
<glyph unicode="&#xe93b;" glyph-name="cloud-snow" d="M362.941 128.008c23.564 0 42.667-19.103 42.667-42.667v0-85.333c0-23.564-19.103-42.667-42.667-42.667s-42.667 19.103-42.667 42.667v0 85.333c0 23.564 19.103 42.667 42.667 42.667zM704.274 128.008c23.564 0 42.667-19.103 42.667-42.667v0-85.333c0-23.564-19.103-42.667-42.667-42.667s-42.667 19.103-42.667 42.667v0 85.333c0 23.564 19.103 42.667 42.667 42.667zM533.608 213.341c23.564 0 42.667-19.103 42.667-42.667v0-85.333c0-23.564-19.103-42.667-42.667-42.667s-42.667 19.103-42.667 42.667v0 85.333c0 23.564 19.103 42.667 42.667 42.667zM362.941 341.341c23.564 0 42.667-19.103 42.667-42.667v0-85.333c0-23.564-19.103-42.667-42.667-42.667s-42.667 19.103-42.667 42.667v0 85.333c0 23.564 19.103 42.667 42.667 42.667zM704.274 341.341c23.564 0 42.667-19.103 42.667-42.667v0-85.333c0-23.564-19.103-42.667-42.667-42.667s-42.667 19.103-42.667 42.667v0 85.333c0 23.564 19.103 42.667 42.667 42.667zM25.35 713.143c59.678 156.073 213.433 255.64 380.262 246.245 155.612-8.763 289.277-110.449 340.455-255.38v0h22.258c121.108-0.143 225.546-85.131 250.296-203.683s-36.961-238.227-147.896-286.813c-21.585-9.453-46.746 0.381-56.2 21.966s0.381 46.746 21.966 56.2c73.957 32.39 115.097 112.174 98.597 191.209s-86.125 135.694-166.814 135.789v0h-53.76c-19.455 0-36.447 13.161-41.311 31.998-32.495 125.834-142.632 216.21-272.389 223.517s-249.343-70.134-295.76-191.524c-46.416-121.39-9.006-258.862 92.521-339.993 18.409-14.71 21.407-41.558 6.697-59.967s-41.558-21.407-59.967-6.697c-130.536 104.311-178.635 281.060-118.956 437.133z" />
<glyph unicode="&#xe93c;" glyph-name="command" d="M768 362.667c94.257 0 170.667-76.41 170.667-170.667s-76.41-170.667-170.667-170.667c-94.257 0-170.667 76.41-170.667 170.667v170.667h170.667zM426.667 192c0-94.257-76.41-170.667-170.667-170.667s-170.667 76.41-170.667 170.667c0 94.257 76.41 170.667 170.667 170.667h170.667v-170.667zM256 533.333c-94.257 0-170.667 76.41-170.667 170.667s76.41 170.667 170.667 170.667c94.257 0 170.667-76.41 170.667-170.667v-170.667h-170.667zM597.333 704c0 94.257 76.41 170.667 170.667 170.667s170.667-76.41 170.667-170.667c0-94.257-76.41-170.667-170.667-170.667h-170.667v170.667zM426.667 533.333v-170.667h170.667v170.667h-170.667zM341.333 618.667v85.333c0 47.128-38.205 85.333-85.333 85.333s-85.333-38.205-85.333-85.333c0-47.128 38.205-85.333 85.333-85.333h85.333zM341.333 277.333h-85.333c-47.128 0-85.333-38.205-85.333-85.333s38.205-85.333 85.333-85.333c47.128 0 85.333 38.205 85.333 85.333v85.333zM682.667 192c0-47.128 38.205-85.333 85.333-85.333s85.333 38.205 85.333 85.333c0 47.128-38.205 85.333-85.333 85.333h-85.333v-85.333zM768 618.667c47.128 0 85.333 38.205 85.333 85.333s-38.205 85.333-85.333 85.333c-47.128 0-85.333-38.205-85.333-85.333v-85.333h85.333zM682.667 277.333h-341.333v341.333h341.333v-341.333z" />
<glyph unicode="&#xe93d;" glyph-name="compass" d="M512 917.333c259.206 0 469.333-210.128 469.333-469.333s-210.128-469.333-469.333-469.333c-259.206 0-469.333 210.128-469.333 469.333s210.128 469.333 469.333 469.333zM512 832c-212.077 0-384-171.923-384-384s171.923-384 384-384c212.077 0 384 171.923 384 384s-171.923 384-384 384zM733.384 615.414l-90.453-271.36c-4.247-12.74-14.244-22.738-26.985-26.985l-271.36-90.453c-33.355-11.118-65.088 20.615-53.97 53.97l90.453 271.36c4.247 12.74 14.244 22.738 26.985 26.985l271.36 90.453c33.355 11.118 65.088-20.615 53.97-53.97zM625.445 561.445l-170.167-56.722-56.722-170.167 170.167 56.722 56.722 170.167z" />
<glyph unicode="&#xe93e;" glyph-name="copy" d="M469.333 533.333c-23.564 0-42.667-19.103-42.667-42.667v-384c0-23.564 19.103-42.667 42.667-42.667h384c23.564 0 42.667 19.103 42.667 42.667v384c0 23.564-19.103 42.667-42.667 42.667h-384zM853.333 618.667c70.692 0 128-57.308 128-128v-384c0-70.692-57.308-128-128-128h-384c-70.692 0-128 57.308-128 128v384c0 70.692 57.308 128 128 128h384zM554.667 917.333c70.692 0 128-57.308 128-128v0-42.667c0-23.564-19.103-42.667-42.667-42.667s-42.667 19.103-42.667 42.667v0 42.667c0 23.564-19.103 42.667-42.667 42.667v0h-384c-23.564 0-42.667-19.103-42.667-42.667v0-384c0-23.564 19.103-42.667 42.667-42.667v0h42.667c23.564 0 42.667-19.103 42.667-42.667s-19.103-42.667-42.667-42.667v0h-42.667c-70.692 0-128 57.308-128 128v0 384c0 70.692 57.308 128 128 128v0z" />
<glyph unicode="&#xe93f;" glyph-name="corner-down-left" d="M853.333 832c23.564 0 42.667-19.103 42.667-42.667v0-298.667c0-117.821-95.513-213.333-213.333-213.333v0h-409.003l140.506-140.497c15.381-15.381 16.564-39.583 3.549-56.32l-3.549-4.020c-16.662-16.662-43.677-16.662-60.34 0v0l-213.333 213.333-3.123 3.484c-0.099 0.123-0.197 0.247-0.295 0.371-0.235 0.295-0.471 0.604-0.702 0.915-0.761 1.032-1.477 2.092-2.145 3.185-0.36 0.583-0.702 1.174-1.028 1.772-0.422 0.778-0.828 1.578-1.208 2.391-0.34 0.725-0.66 1.464-0.957 2.209-0.337 0.843-0.644 1.687-0.925 2.543-0.206 0.635-0.403 1.292-0.585 1.952-0.256 0.92-0.478 1.845-0.669 2.782-0.148 0.743-0.279 1.487-0.39 2.233-0.31 2.052-0.47 4.175-0.47 6.335l0.169-3.808c-0.088 0.992-0.142 1.987-0.161 2.982l-0.008 0.826c0 0.273 0.003 0.546 0.008 0.818 0.018 0.975 0.072 1.984 0.162 2.99 0.077 0.879 0.177 1.717 0.301 2.548 0.111 0.725 0.242 1.468 0.393 2.209 0.188 0.94 0.409 1.865 0.661 2.778 0.187 0.667 0.384 1.323 0.598 1.976 0.272 0.839 0.579 1.683 0.912 2.514 0.303 0.757 0.622 1.495 0.963 2.226 0.414 0.882 0.858 1.752 1.331 2.605 0.283 0.517 0.586 1.038 0.901 1.554 0.818 1.331 1.704 2.617 2.656 3.848 1.1 1.427 2.305 2.797 3.612 4.105l-3.418-3.855c1.062 1.353 2.203 2.641 3.418 3.855l213.333 213.333c16.662 16.662 43.677 16.662 60.34 0s16.662-43.677 0-60.34v0l-140.506-140.497h409.003c68.168 0 123.89 53.287 127.783 120.479l0.217 7.521v298.667c0 23.564 19.103 42.667 42.667 42.667z" />
<glyph unicode="&#xe940;" glyph-name="corner-down-right" d="M170.667 832c23.564 0 42.667-19.103 42.667-42.667v0-298.667c0-70.692 57.308-128 128-128v0h408.96l-140.463 140.497c-15.381 15.381-16.564 39.583-3.549 56.32l3.549 4.020c16.662 16.662 43.677 16.662 60.34 0v0l213.333-213.333c1.215-1.215 2.356-2.502 3.418-3.855 0.062-0.074 0.129-0.161 0.196-0.247 0.95-1.234 1.836-2.519 2.651-3.853 0.318-0.514 0.622-1.035 0.913-1.562 0.464-0.843 0.909-1.714 1.323-2.601 0.34-0.725 0.66-1.464 0.957-2.209 0.337-0.843 0.644-1.687 0.925-2.543 0.206-0.635 0.403-1.292 0.585-1.952 0.256-0.92 0.478-1.845 0.669-2.782 0.148-0.743 0.279-1.487 0.39-2.233 0.31-2.052 0.47-4.175 0.47-6.335l-0.158 3.679c0.066-0.767 0.111-1.534 0.136-2.303l0.022-1.376c0-0.479-0.008-0.956-0.024-1.431-0.024-0.728-0.068-1.467-0.131-2.205-0.078-0.932-0.183-1.83-0.316-2.719-0.111-0.725-0.242-1.468-0.393-2.209-0.188-0.94-0.409-1.865-0.661-2.778-0.187-0.667-0.384-1.323-0.598-1.976-0.272-0.839-0.579-1.683-0.912-2.514-0.303-0.757-0.622-1.495-0.963-2.226-0.38-0.808-0.785-1.608-1.214-2.392-0.319-0.591-0.661-1.183-1.018-1.767-0.671-1.091-1.386-2.151-2.147-3.177-1.237-1.671-2.611-3.266-4.121-4.776l3.418 3.855c-0.097-0.124-0.196-0.248-0.295-0.371l-3.123-3.484-213.333-213.333c-16.662-16.662-43.677-16.662-60.34 0s-16.662 43.677 0 60.34v0l140.463 140.497h-408.96c-114.72 0-208.291 90.552-213.136 204.079l-0.197 9.254v298.667c0 23.564 19.103 42.667 42.667 42.667z" />
<glyph unicode="&#xe941;" glyph-name="corner-left-down" d="M853.333 832c23.564 0 42.667-19.103 42.667-42.667s-19.103-42.667-42.667-42.667v0h-298.667c-70.692 0-128-57.308-128-128v0-408.96l140.497 140.463c15.381 15.381 39.583 16.564 56.32 3.549l4.020-3.549c16.662-16.662 16.662-43.677 0-60.34v0l-213.333-213.333c-1.215-1.215-2.502-2.356-3.855-3.418-0.295-0.235-0.604-0.471-0.915-0.702-1.032-0.761-2.092-1.477-3.185-2.145-0.514-0.318-1.035-0.622-1.562-0.913-0.843-0.464-1.714-0.909-2.601-1.323-0.725-0.34-1.464-0.66-2.209-0.957-0.843-0.337-1.687-0.644-2.543-0.925-0.635-0.206-1.292-0.403-1.952-0.585-0.92-0.256-1.845-0.478-2.782-0.669-0.743-0.148-1.487-0.279-2.233-0.39-2.052-0.31-4.175-0.47-6.335-0.47l3.636 0.154c-0.738-0.063-1.478-0.106-2.218-0.131l-1.419-0.023c-0.475 0-0.948 0.008-1.419 0.023-0.726 0.024-1.494 0.069-2.261 0.135-0.924 0.078-1.805 0.182-2.676 0.312-0.725 0.111-1.468 0.242-2.209 0.393-0.94 0.188-1.865 0.409-2.778 0.661-0.667 0.187-1.323 0.384-1.976 0.598-0.839 0.272-1.683 0.579-2.514 0.912-0.757 0.303-1.495 0.622-2.226 0.963-0.882 0.414-1.752 0.858-2.605 1.331-0.517 0.283-1.038 0.586-1.554 0.901-1.091 0.671-2.151 1.386-3.177 2.147-1.671 1.237-3.266 2.611-4.776 4.121l3.855-3.418c-1.353 1.062-2.641 2.203-3.855 3.418l-213.333 213.333c-16.662 16.662-16.662 43.677 0 60.34s43.677 16.662 60.34 0v0l140.497-140.463v408.96c0 114.72 90.552 208.291 204.079 213.136l9.254 0.197z" />
<glyph unicode="&#xe942;" glyph-name="corner-left-up" d="M384 832c0.276 0 0.551-0.003 0.825-0.008 0.996-0.019 1.991-0.073 2.983-0.161 0.872-0.076 1.714-0.176 2.548-0.301 0.725-0.111 1.468-0.242 2.209-0.393 0.94-0.188 1.865-0.409 2.778-0.661 0.667-0.187 1.323-0.384 1.976-0.598 0.839-0.272 1.683-0.579 2.514-0.912 0.757-0.303 1.495-0.622 2.226-0.963 0.882-0.414 1.752-0.858 2.605-1.331 0.517-0.283 1.038-0.586 1.554-0.901 1.091-0.671 2.151-1.386 3.177-2.147 1.671-1.237 3.266-2.611 4.776-4.121l-3.855 3.418c0.124-0.098 0.248-0.196 0.371-0.295l3.484-3.123 213.333-213.333c16.662-16.662 16.662-43.677 0-60.34s-43.677-16.662-60.34 0v0l-140.497 140.506v-409.003c0-68.168 53.287-123.89 120.479-127.783l7.521-0.217h298.667c23.564 0 42.667-19.103 42.667-42.667s-19.103-42.667-42.667-42.667v0h-298.667c-117.821 0-213.333 95.513-213.333 213.333v0 409.003l-140.497-140.506c-15.381-15.381-39.583-16.564-56.32-3.549l-4.020 3.549c-16.662 16.662-16.662 43.677 0 60.34v0l213.333 213.333 3.484 3.123c0.123 0.099 0.247 0.197 0.371 0.295 0.295 0.235 0.604 0.471 0.915 0.702 1.032 0.761 2.092 1.477 3.185 2.145 0.514 0.318 1.035 0.622 1.562 0.913 0.843 0.464 1.714 0.909 2.601 1.323 0.725 0.34 1.464 0.66 2.209 0.957 0.843 0.337 1.687 0.644 2.543 0.925 0.635 0.206 1.292 0.403 1.952 0.585 0.92 0.256 1.845 0.478 2.782 0.669 0.743 0.148 1.487 0.279 2.233 0.39 2.052 0.31 4.175 0.47 6.335 0.47l-3.808-0.169c1.006 0.090 2.015 0.144 3.025 0.162z" />
<glyph unicode="&#xe943;" glyph-name="corner-right-down" d="M469.333 832c117.821 0 213.333-95.513 213.333-213.333v0-408.96l140.497 140.463c15.381 15.381 39.583 16.564 56.32 3.549l4.020-3.549c16.662-16.662 16.662-43.677 0-60.34v0l-213.333-213.333c-1.215-1.215-2.502-2.356-3.855-3.418-0.295-0.235-0.604-0.471-0.915-0.702-1.032-0.761-2.092-1.477-3.185-2.145-0.514-0.318-1.035-0.622-1.562-0.913-0.843-0.464-1.714-0.909-2.601-1.323-0.725-0.34-1.464-0.66-2.209-0.957-0.843-0.337-1.687-0.644-2.543-0.925-0.635-0.206-1.292-0.403-1.952-0.585-0.92-0.256-1.845-0.478-2.782-0.669-0.743-0.148-1.487-0.279-2.233-0.39-2.052-0.31-4.175-0.47-6.335-0.47l3.636 0.154c-0.738-0.063-1.478-0.106-2.218-0.131l-1.419-0.023c-0.475 0-0.948 0.008-1.419 0.023-0.726 0.024-1.494 0.069-2.261 0.135-0.924 0.078-1.805 0.182-2.676 0.312-0.725 0.111-1.468 0.242-2.209 0.393-0.94 0.188-1.865 0.409-2.778 0.661-0.667 0.187-1.323 0.384-1.976 0.598-0.839 0.272-1.683 0.579-2.514 0.912-0.757 0.303-1.495 0.622-2.226 0.963-0.882 0.414-1.752 0.858-2.605 1.331-0.517 0.283-1.038 0.586-1.554 0.901-1.091 0.671-2.151 1.386-3.177 2.147-1.671 1.237-3.266 2.611-4.776 4.121l3.855-3.418c-1.353 1.062-2.641 2.203-3.855 3.418l-213.333 213.333c-16.662 16.662-16.662 43.677 0 60.34s43.677 16.662 60.34 0v0l140.497-140.463v408.96c0 68.168-53.287 123.89-120.479 127.783l-7.521 0.217h-298.667c-23.564 0-42.667 19.103-42.667 42.667s19.103 42.667 42.667 42.667v0z" />
<glyph unicode="&#xe944;" glyph-name="corner-right-up" d="M640 832c0.276 0 0.551-0.003 0.825-0.008 0.996-0.019 1.991-0.073 2.983-0.161 0.872-0.076 1.714-0.176 2.548-0.301 0.725-0.111 1.468-0.242 2.209-0.393 0.94-0.188 1.865-0.409 2.778-0.661 0.667-0.187 1.323-0.384 1.976-0.598 0.839-0.272 1.683-0.579 2.514-0.912 0.757-0.303 1.495-0.622 2.226-0.963 0.882-0.414 1.752-0.858 2.605-1.331 0.517-0.283 1.038-0.586 1.554-0.901 1.091-0.671 2.151-1.386 3.177-2.147 1.671-1.237 3.266-2.611 4.776-4.121l-3.855 3.418c0.124-0.098 0.248-0.196 0.371-0.295l3.484-3.123 213.333-213.333c16.662-16.662 16.662-43.677 0-60.34s-43.677-16.662-60.34 0v0l-140.497 140.506v-409.003c0-114.72-90.552-208.291-204.079-213.136l-9.254-0.197h-298.667c-23.564 0-42.667 19.103-42.667 42.667s19.103 42.667 42.667 42.667v0h298.667c70.692 0 128 57.308 128 128v0 409.003l-140.497-140.506c-15.381-15.381-39.583-16.564-56.32-3.549l-4.020 3.549c-16.662 16.662-16.662 43.677 0 60.34v0l213.333 213.333 3.484 3.123c0.123 0.099 0.247 0.197 0.371 0.295 0.295 0.235 0.604 0.471 0.915 0.702 1.032 0.761 2.092 1.477 3.185 2.145 0.514 0.318 1.035 0.622 1.562 0.913 0.843 0.464 1.714 0.909 2.601 1.323 0.725 0.34 1.464 0.66 2.209 0.957 0.843 0.337 1.687 0.644 2.543 0.925 0.635 0.206 1.292 0.403 1.952 0.585 0.92 0.256 1.845 0.478 2.782 0.669 0.743 0.148 1.487 0.279 2.233 0.39 2.052 0.31 4.175 0.47 6.335 0.47l-3.808-0.169c1.006 0.090 2.015 0.144 3.025 0.162z" />
<glyph unicode="&#xe945;" glyph-name="corner-up-left" d="M414.17 392.837c16.662-16.662 16.662-43.677 0-60.34s-43.677-16.662-60.34 0v0l-213.333 213.333-3.123 3.484c-0.099 0.123-0.197 0.247-0.295 0.371-0.235 0.295-0.471 0.604-0.702 0.915-0.761 1.032-1.477 2.092-2.145 3.185-0.318 0.514-0.622 1.035-0.913 1.562-0.464 0.843-0.909 1.714-1.323 2.601-0.34 0.725-0.66 1.464-0.957 2.209-0.337 0.843-0.644 1.687-0.925 2.543-0.206 0.635-0.403 1.292-0.585 1.952-0.256 0.92-0.478 1.845-0.669 2.782-0.148 0.743-0.279 1.487-0.39 2.233-0.31 2.052-0.47 4.175-0.47 6.335l0.169-3.808c-0.088 0.992-0.142 1.987-0.161 2.982l-0.008 0.826c0 0.273 0.003 0.546 0.008 0.818 0.018 0.975 0.072 1.984 0.162 2.99 0.077 0.879 0.177 1.717 0.301 2.548 0.111 0.725 0.242 1.468 0.393 2.209 0.188 0.94 0.409 1.865 0.661 2.778 0.187 0.667 0.384 1.323 0.598 1.976 0.272 0.839 0.579 1.683 0.912 2.514 0.303 0.757 0.622 1.495 0.963 2.226 0.414 0.882 0.858 1.752 1.331 2.605 0.283 0.517 0.586 1.038 0.901 1.554 0.671 1.091 1.386 2.151 2.147 3.177 1.237 1.671 2.611 3.266 4.121 4.776l-3.418-3.855c1.062 1.353 2.203 2.641 3.418 3.855l213.333 213.333c16.662 16.662 43.677 16.662 60.34 0s16.662-43.677 0-60.34v0l-140.506-140.497h409.003c114.72 0 208.291-90.552 213.136-204.079l0.197-9.254v-298.667c0-23.564-19.103-42.667-42.667-42.667s-42.667 19.103-42.667 42.667v0 298.667c0 70.692-57.308 128-128 128v0h-409.003z" />
<glyph unicode="&#xe946;" glyph-name="corner-up-right" d="M609.83 819.503c16.662 16.662 43.677 16.662 60.34 0v0l213.333-213.333c1.215-1.215 2.356-2.502 3.418-3.855 0.235-0.295 0.471-0.604 0.702-0.915 0.761-1.032 1.477-2.092 2.145-3.185 0.318-0.514 0.622-1.035 0.913-1.562 0.464-0.843 0.909-1.714 1.323-2.601 0.34-0.725 0.66-1.464 0.957-2.209 0.337-0.843 0.644-1.687 0.925-2.543 0.206-0.635 0.403-1.292 0.585-1.952 0.256-0.92 0.478-1.845 0.669-2.782 0.148-0.743 0.279-1.487 0.39-2.233 0.31-2.052 0.47-4.175 0.47-6.335l-0.158 3.679c0.066-0.767 0.111-1.534 0.136-2.303l0.022-1.376c0-0.479-0.008-0.956-0.024-1.431-0.024-0.728-0.068-1.467-0.131-2.205-0.078-0.932-0.183-1.83-0.316-2.719-0.111-0.725-0.242-1.468-0.393-2.209-0.188-0.94-0.409-1.865-0.661-2.778-0.187-0.667-0.384-1.323-0.598-1.976-0.272-0.839-0.579-1.683-0.912-2.514-0.303-0.757-0.622-1.495-0.963-2.226-0.414-0.882-0.858-1.752-1.331-2.605-0.283-0.517-0.586-1.038-0.901-1.554-0.671-1.091-1.386-2.151-2.147-3.177-1.237-1.671-2.611-3.266-4.121-4.776l3.418 3.855c-0.097-0.124-0.196-0.248-0.295-0.371l-3.123-3.484-213.333-213.333c-16.662-16.662-43.677-16.662-60.34 0s-16.662 43.677 0 60.34v0l140.463 140.497h-408.96c-68.168 0-123.89-53.287-127.783-120.479l-0.217-7.521v-298.667c0-23.564-19.103-42.667-42.667-42.667s-42.667 19.103-42.667 42.667v0 298.667c0 117.821 95.513 213.333 213.333 213.333v0h408.96l-140.463 140.497c-15.381 15.381-16.564 39.583-3.549 56.32z" />
<glyph unicode="&#xe947;" glyph-name="cpu" d="M640 960c23.564 0 42.667-19.103 42.667-42.667v0-85.333h85.333c70.692 0 128-57.308 128-128v-85.333h85.333c21.881 0 39.915-16.471 42.38-37.691l0.287-4.976c0-23.564-19.103-42.667-42.667-42.667v0h-85.333v-128h85.333c21.881 0 39.915-16.471 42.38-37.691l0.287-4.976c0-23.564-19.103-42.667-42.667-42.667v0h-85.333v-128c0-70.692-57.308-128-128-128h-85.333v-85.333c0-21.881-16.471-39.915-37.691-42.38l-4.976-0.287c-23.564 0-42.667 19.103-42.667 42.667v0 85.333h-170.667v-85.333c0-21.881-16.471-39.915-37.691-42.38l-4.976-0.287c-23.564 0-42.667 19.103-42.667 42.667v0 85.333h-85.333c-70.692 0-128 57.308-128 128v128h-85.333c-21.881 0-39.915 16.471-42.38 37.691l-0.287 4.976c0 23.564 19.103 42.667 42.667 42.667v0h85.333v128h-85.333c-21.881 0-39.915 16.471-42.38 37.691l-0.287 4.976c0 23.564 19.103 42.667 42.667 42.667v0h85.333v85.333c0 70.692 57.308 128 128 128h85.333v85.333c0 21.881 16.471 39.915 37.691 42.38l4.976 0.287c23.564 0 42.667-19.103 42.667-42.667v0-85.333h170.667v85.333c0 21.881 16.471 39.915 37.691 42.38zM768 746.667h-512c-23.564 0-42.667-19.103-42.667-42.667v-512c0-23.564 19.103-42.667 42.667-42.667h512c23.564 0 42.667 19.103 42.667 42.667v512c0 23.564-19.103 42.667-42.667 42.667zM640 618.667c23.564 0 42.667-19.103 42.667-42.667v-256c0-23.564-19.103-42.667-42.667-42.667h-256c-23.564 0-42.667 19.103-42.667 42.667v256c0 23.564 19.103 42.667 42.667 42.667h256zM597.333 533.333h-170.667v-170.667h170.667v170.667z" />
<glyph unicode="&#xe948;" glyph-name="credit-card" d="M896 832c70.692 0 128-57.308 128-128v-512c0-70.692-57.308-128-128-128h-768c-70.692 0-128 57.308-128 128v512c0 70.692 57.308 128 128 128h768zM938.667 490.667h-853.333v-298.667c0-23.564 19.103-42.667 42.667-42.667h768c23.564 0 42.667 19.103 42.667 42.667v298.667zM896 746.667h-768c-23.564 0-42.667-19.103-42.667-42.667v-128h853.333v128c0 23.564-19.103 42.667-42.667 42.667z" />
<glyph unicode="&#xe949;" glyph-name="crosshair" d="M512 917.333c259.206 0 469.333-210.128 469.333-469.333s-210.128-469.333-469.333-469.333c-259.206 0-469.333 210.128-469.333 469.333s210.128 469.333 469.333 469.333zM554.696 829.653l-0.030-125.653c0-23.564-19.103-42.667-42.667-42.667s-42.667 19.103-42.667 42.667v0l0.013 125.658c-177.999-19.671-319.333-161.005-339.004-339.004l125.658 0.013c23.564 0 42.667-19.103 42.667-42.667s-19.103-42.667-42.667-42.667v0l-125.653-0.030c19.689-177.979 161.014-319.292 338.999-338.961l-0.013 125.658c0 23.564 19.103 42.667 42.667 42.667s42.667-19.103 42.667-42.667v0l0.030-125.653c177.965 19.687 319.27 160.992 338.957 338.957l-125.653 0.030c-23.564 0-42.667 19.103-42.667 42.667s19.103 42.667 42.667 42.667v0l125.658-0.013c-19.669 177.985-160.982 319.311-338.961 338.999z" />
<glyph unicode="&#xe94a;" glyph-name="delete" d="M896 832c70.692 0 128-57.308 128-128v-512c0-70.692-57.308-128-128-128h-554.667c-12.303 0-24.008 5.311-32.11 14.57l-298.667 341.333c-14.076 16.086-14.076 40.106 0 56.192l298.667 341.333c8.102 9.259 19.806 14.57 32.11 14.57h554.667zM896 746.667h-535.306l-261.333-298.667 261.333-298.667h535.306c23.564 0 42.667 19.103 42.667 42.667v512c0 23.564-19.103 42.667-42.667 42.667zM481.83 606.17c16.662 16.662 43.677 16.662 60.34 0v0l97.83-97.797 97.83 97.797c15.381 15.381 39.583 16.564 56.32 3.549l4.020-3.549c16.662-16.662 16.662-43.677 0-60.34v0l-97.797-97.83 97.797-97.83c15.381-15.381 16.564-39.583 3.549-56.32l-3.549-4.020c-16.662-16.662-43.677-16.662-60.34 0v0l-97.83 97.797-97.83-97.797c-15.381-15.381-39.583-16.564-56.32-3.549l-4.020 3.549c-16.662 16.662-16.662 43.677 0 60.34v0l97.797 97.83-97.797 97.83c-15.381 15.381-16.564 39.583-3.549 56.32z" />
<glyph unicode="&#xe94b;" glyph-name="disc" d="M512 917.333c259.206 0 469.333-210.128 469.333-469.333s-210.128-469.333-469.333-469.333c-259.206 0-469.333 210.128-469.333 469.333s210.128 469.333 469.333 469.333zM512 832c-212.077 0-384-171.923-384-384s171.923-384 384-384c212.077 0 384 171.923 384 384s-171.923 384-384 384zM512 618.667c94.257 0 170.667-76.41 170.667-170.667s-76.41-170.667-170.667-170.667c-94.257 0-170.667 76.41-170.667 170.667s76.41 170.667 170.667 170.667zM512 533.333c-47.128 0-85.333-38.205-85.333-85.333s38.205-85.333 85.333-85.333c47.128 0 85.333 38.205 85.333 85.333s-38.205 85.333-85.333 85.333z" />
<glyph unicode="&#xe94c;" glyph-name="download" d="M896 277.333c23.564 0 42.667-19.103 42.667-42.667v0-128c0-70.692-57.308-128-128-128v0h-597.333c-70.692 0-128 57.308-128 128v0 128c0 23.564 19.103 42.667 42.667 42.667s42.667-19.103 42.667-42.667v0-128c0-23.564 19.103-42.667 42.667-42.667v0h597.333c23.564 0 42.667 19.103 42.667 42.667v0 128c0 23.564 19.103 42.667 42.667 42.667zM512 917.333c23.564 0 42.667-19.103 42.667-42.667v0-494.293l97.83 97.797c15.381 15.381 39.583 16.564 56.32 3.549l4.020-3.549c16.662-16.662 16.662-43.677 0-60.34v0l-170.667-170.667c-1.215-1.215-2.502-2.356-3.855-3.418-0.295-0.235-0.604-0.471-0.915-0.702-1.032-0.761-2.092-1.477-3.185-2.145-0.514-0.318-1.035-0.622-1.562-0.913-0.843-0.464-1.714-0.909-2.601-1.323-0.725-0.34-1.464-0.66-2.209-0.957-0.843-0.337-1.687-0.644-2.543-0.925-0.635-0.206-1.292-0.403-1.952-0.585-0.92-0.256-1.845-0.478-2.782-0.669-0.743-0.148-1.487-0.279-2.233-0.39-2.052-0.31-4.175-0.47-6.335-0.47l3.636 0.154c-0.738-0.063-1.478-0.106-2.218-0.131l-1.419-0.023c-0.475 0-0.948 0.008-1.419 0.023-0.726 0.024-1.494 0.069-2.261 0.135-0.924 0.078-1.805 0.182-2.676 0.312-0.725 0.111-1.468 0.242-2.209 0.393-0.94 0.188-1.865 0.409-2.778 0.661-0.667 0.187-1.323 0.384-1.976 0.598-0.839 0.272-1.683 0.579-2.514 0.912-0.757 0.303-1.495 0.622-2.226 0.963-0.882 0.414-1.752 0.858-2.605 1.331-0.517 0.283-1.038 0.586-1.554 0.901-1.091 0.671-2.151 1.386-3.177 2.147-1.671 1.237-3.266 2.611-4.776 4.121l3.855-3.418c-1.353 1.062-2.641 2.203-3.855 3.418l-170.667 170.667c-16.662 16.662-16.662 43.677 0 60.34s43.677 16.662 60.34 0v0l97.83-97.797v494.293c0 21.881 16.471 39.915 37.691 42.38z" />
<glyph unicode="&#xe94d;" glyph-name="download-cloud" d="M512.388 490.159c23.564 0 42.667-19.103 42.667-42.667v0l-0.004-280.964 97.834 97.801c15.381 15.381 39.583 16.564 56.32 3.549l4.020-3.549c16.662-16.662 16.662-43.677 0-60.34v0l-170.667-170.667c-1.215-1.215-2.502-2.356-3.855-3.418-0.295-0.235-0.604-0.471-0.915-0.702-1.032-0.761-2.092-1.477-3.185-2.145-0.476-0.295-0.959-0.577-1.446-0.848-0.94-0.522-1.923-1.023-2.928-1.486-0.571-0.264-1.109-0.497-1.65-0.718-0.955-0.393-1.957-0.762-2.975-1.093-0.613-0.197-1.239-0.384-1.867-0.557-0.92-0.256-1.845-0.478-2.782-0.669-0.743-0.148-1.487-0.279-2.233-0.39-2.052-0.31-4.175-0.47-6.335-0.47l3.808 0.169c-0.997-0.089-1.997-0.143-2.997-0.162l-0.811-0.008c-0.288 0-0.575 0.003-0.861 0.009-0.975 0.020-1.957 0.073-2.936 0.16-0.862 0.074-1.714 0.176-2.559 0.302-0.732 0.112-1.472 0.243-2.209 0.393-0.94 0.188-1.865 0.409-2.778 0.661-0.623 0.175-1.236 0.358-1.846 0.556-1.108 0.357-2.211 0.766-3.291 1.219-0.383 0.16-0.766 0.327-1.146 0.499-1.045 0.476-2.063 0.989-3.057 1.541-0.542 0.297-1.108 0.627-1.667 0.971-0.934 0.581-1.82 1.174-2.681 1.799-1.793 1.297-3.516 2.763-5.14 4.387l3.81-3.382c-1.337 1.052-2.609 2.181-3.81 3.382l-170.667 170.667c-16.662 16.662-16.662 43.677 0 60.34s43.677 16.662 60.34 0v0l97.826-97.801 0.004 280.964c0 21.881 16.471 39.915 37.691 42.38zM43.492 668.156c73.531 141.060 226.422 222.179 384.451 203.977 146.855-16.914 269.89-116.345 318.284-253.975v0h22.127c111.672 0.087 210.515-72.222 244.244-178.679s-5.441-222.493-96.788-286.729c-19.275-13.555-45.889-8.917-59.444 10.359s-8.917 45.889 10.359 59.444c60.899 42.824 87.011 120.182 64.526 191.153s-88.382 119.178-162.863 119.119v0h-53.76c-19.48 0-36.486 13.194-41.328 32.062-30.751 119.842-132.209 208.317-255.121 222.473s-241.827-48.936-299.018-158.649c-57.191-109.713-40.814-243.33 41.179-335.984 15.616-17.647 13.97-44.612-3.677-60.228s-44.612-13.97-60.228 3.677c-105.42 119.127-126.475 290.92-52.944 431.98z" />
<glyph unicode="&#xe94e;" glyph-name="droplet" d="M301.093 573.554c-85.459-85.403-111.047-213.88-64.831-325.508s155.134-184.417 275.951-184.417c120.817 0 229.734 72.789 275.951 184.417s20.628 240.105-64.841 325.518l-211.297 211.297-210.933-211.307zM542.17 875.397l241.483-241.483c109.875-109.803 142.775-274.988 83.354-418.51s-199.457-237.108-354.794-237.108c-155.336 0-295.373 93.586-354.794 237.108s-26.522 308.707 83.317 418.474l241.067 241.493c16.658 16.688 43.694 16.699 60.366 0.027z" />
<glyph unicode="&#xe94f;" glyph-name="edit" d="M398.507 832c23.564 0 42.667-19.103 42.667-42.667s-19.103-42.667-42.667-42.667v0h-227.84c-23.564 0-42.667-19.103-42.667-42.667v0-597.333c0-23.564 19.103-42.667 42.667-42.667v0h597.333c23.564 0 42.667 19.103 42.667 42.667v0 227.84c0 23.564 19.103 42.667 42.667 42.667s42.667-19.103 42.667-42.667v0-227.84c0-70.692-57.308-128-128-128v0h-597.333c-70.692 0-128 57.308-128 128v0 597.333c0 70.692 57.308 128 128 128v0zM798.17 904.837l170.667-170.667c16.662-16.662 16.662-43.677 0-60.34l-426.667-426.667c-8.002-8.002-18.854-12.497-30.17-12.497h-170.667c-23.564 0-42.667 19.103-42.667 42.667v170.667c0 11.316 4.495 22.168 12.497 30.17l426.667 426.667c16.662 16.662 43.677 16.662 60.34 0zM768 814.327l-384-384v-110.327h110.327l384 384-110.327 110.327z" />
<glyph unicode="&#xe950;" glyph-name="edit-2" d="M170.667 259.66v-152.994h152.994l512 512-152.994 152.994-512-512zM712.837 862.17l213.333-213.333c16.662-16.662 16.662-43.677 0-60.34l-554.667-554.667c-8.002-8.002-18.854-12.497-30.17-12.497h-213.333c-23.564 0-42.667 19.103-42.667 42.667v213.333c0 11.316 4.495 22.168 12.497 30.17l554.667 554.667c16.662 16.662 43.677 16.662 60.34 0z" />
<glyph unicode="&#xe951;" glyph-name="edit-3" d="M597.333 814.327l-426.667-426.667v-110.327h110.327l426.667 426.667-110.327 110.327zM896 64c23.564 0 42.667-19.103 42.667-42.667s-19.103-42.667-42.667-42.667v0h-768c-23.564 0-42.667 19.103-42.667 42.667s19.103 42.667 42.667 42.667v0zM627.503 904.837l170.667-170.667c16.662-16.662 16.662-43.677 0-60.34l-469.333-469.333c-8.002-8.002-18.854-12.497-30.17-12.497h-170.667c-23.564 0-42.667 19.103-42.667 42.667v170.667c0 11.316 4.495 22.168 12.497 30.17l469.333 469.333c16.662 16.662 43.677 16.662 60.34 0z" />
<glyph unicode="&#xe952;" glyph-name="external-link" d="M469.333 746.667c23.564 0 42.667-19.103 42.667-42.667s-19.103-42.667-42.667-42.667v0h-256c-23.564 0-42.667-19.103-42.667-42.667v0-469.333c0-23.564 19.103-42.667 42.667-42.667v0h469.333c23.564 0 42.667 19.103 42.667 42.667v0 256c0 23.564 19.103 42.667 42.667 42.667s42.667-19.103 42.667-42.667v0-256c0-70.692-57.308-128-128-128v0h-469.333c-70.692 0-128 57.308-128 128v0 469.333c0 70.692 57.308 128 128 128v0zM896 874.667c0.276 0 0.551-0.003 0.825-0.008 0.996-0.019 1.991-0.073 2.983-0.161 0.872-0.076 1.714-0.176 2.548-0.301 0.725-0.111 1.468-0.242 2.209-0.393 0.94-0.188 1.865-0.409 2.778-0.661 0.667-0.187 1.323-0.384 1.976-0.598 0.839-0.272 1.683-0.579 2.514-0.912 0.757-0.303 1.495-0.622 2.226-0.963 0.882-0.414 1.752-0.858 2.605-1.331 0.517-0.283 1.038-0.586 1.554-0.901 1.091-0.671 2.151-1.386 3.177-2.147 1.671-1.237 3.266-2.611 4.776-4.121l-3.855 3.418c2.706-2.123 5.15-4.567 7.273-7.273 0.235-0.295 0.471-0.604 0.702-0.915 0.761-1.032 1.477-2.092 2.145-3.185 0.318-0.514 0.622-1.035 0.913-1.562 0.464-0.843 0.909-1.714 1.323-2.601 0.34-0.725 0.66-1.464 0.957-2.209 0.337-0.843 0.644-1.687 0.925-2.543 0.206-0.635 0.403-1.292 0.585-1.952 0.256-0.92 0.478-1.845 0.669-2.782 0.148-0.743 0.279-1.487 0.39-2.233 0.31-2.052 0.47-4.175 0.47-6.335l-0.158 3.679c0.066-0.767 0.111-1.534 0.136-2.303l0.022-1.376v-256c0-23.564-19.103-42.667-42.667-42.667s-42.667 19.103-42.667 42.667v0 153.003l-396.497-396.506c-15.381-15.381-39.583-16.564-56.32-3.549l-4.020 3.549c-16.662 16.662-16.662 43.677 0 60.34v0l396.421 396.497h-152.917c-21.881 0-39.915 16.471-42.38 37.691l-0.287 4.976c0 23.564 19.103 42.667 42.667 42.667v0z" />
<glyph unicode="&#xe953;" glyph-name="eye" d="M512 832c144.205 0 270.451-69.653 377.794-184.152 36.878-39.337 68.905-81.339 96.048-123.367 16.4-25.393 27.656-45.405 33.654-57.4 6.006-12.012 6.006-26.15 0-38.162-5.998-11.995-17.254-32.007-33.654-57.4-27.143-42.028-59.17-84.030-96.048-123.367-107.343-114.499-233.589-184.152-377.794-184.152s-270.451 69.653-377.794 184.152c-36.878 39.337-68.905 81.339-96.048 123.367-16.4 25.393-27.656 45.405-33.654 57.4-6.006 12.012-6.006 26.15 0 38.162 5.998 11.995 17.254 32.007 33.654 57.4 27.143 42.028 59.17 84.030 96.048 123.367 107.343 114.499 233.589 184.152 377.794 184.152zM512 746.667c-117.128 0-222.882-58.347-315.54-157.181-33.122-35.33-62.095-73.328-86.619-111.3-6.961-10.778-13.134-20.9-18.505-30.186 5.371-9.286 11.544-19.408 18.505-30.186 24.524-37.972 53.497-75.97 86.619-111.3 92.657-98.834 198.411-157.181 315.54-157.181s222.882 58.347 315.54 157.181c33.122 35.33 62.095 73.328 86.619 111.3 6.961 10.778 13.134 20.9 18.505 30.186-5.371 9.286-11.544 19.408-18.505 30.186-24.524 37.972-53.497 75.97-86.619 111.3-92.657 98.834-198.411 157.181-315.54 157.181zM512 618.667c94.257 0 170.667-76.41 170.667-170.667s-76.41-170.667-170.667-170.667c-94.257 0-170.667 76.41-170.667 170.667s76.41 170.667 170.667 170.667zM512 533.333c-47.128 0-85.333-38.205-85.333-85.333s38.205-85.333 85.333-85.333c47.128 0 85.333 38.205 85.333 85.333s-38.205 85.333-85.333 85.333z" />
<glyph unicode="&#xe954;" glyph-name="eye-off" d="M12.497 947.503c16.662 16.662 43.677 16.662 60.34 0v0l938.667-938.667c16.662-16.662 16.662-43.677 0-60.34s-43.677-16.662-60.34 0v0l-190.615 190.564c-73.81-47.487-159.696-73.614-248.548-75.061-144.205 0-270.451 69.653-377.794 184.152-36.878 39.337-68.905 81.339-96.048 123.367-16.4 25.393-27.656 45.405-33.654 57.4-6.2 12.4-5.989 27.039 0.566 39.255 48.274 89.963 112.667 170.122 189.833 236.55l-182.407 182.44c-16.662 16.662-16.662 43.677 0 60.34zM255.427 644.192c-65.56-55.466-121.061-121.883-164.012-196.328 5.352-9.248 11.499-19.325 18.426-30.050 24.524-37.972 53.497-75.97 86.619-111.3 92.657-98.834 198.411-157.181 314.842-157.187 66.048 1.080 130.435 19.038 187.175 51.799l-99.054 99.052c-39.045-24.461-86.983-32.444-132.846-20.731-60.469 15.443-107.687 62.66-123.13 123.13-11.713 45.863-3.73 93.8 20.731 132.846zM512 832.001c144.205 0 270.451-69.654 377.794-184.153 36.878-39.337 68.905-81.339 96.048-123.367 16.4-25.393 27.656-45.405 33.654-57.4 6.189-12.378 5.99-26.99-0.534-39.195-27.3-51.072-59.857-99.154-97.142-143.464-15.172-18.030-42.087-20.348-60.117-5.176s-20.348 42.087-5.176 60.117c28.547 33.926 54.005 70.315 76.081 108.732-5.358 9.259-11.512 19.349-18.449 30.089-24.524 37.972-53.497 75.97-86.619 111.3-92.657 98.834-198.411 157.181-315.64 157.182-26.855 0.063-53.627-2.996-79.775-9.117-22.944-5.371-45.897 8.875-51.268 31.819s8.875 45.897 31.819 51.268c32.589 7.628 65.955 11.441 99.324 11.364zM427.856 471.801c-5.092-15.272-5.856-31.948-1.728-48.109 7.721-30.235 31.33-53.843 61.565-61.565 16.161-4.127 32.837-3.363 48.109 1.728z" />
<glyph unicode="&#xe955;" glyph-name="facebook" d="M384 661.333c0 141.385 114.615 256 256 256h128c23.564 0 42.667-19.103 42.667-42.667v-170.667c0-23.564-19.103-42.667-42.667-42.667h-128v-85.333h128c27.758 0 48.125-26.086 41.393-53.015l-42.667-170.667c-4.748-18.994-21.814-32.318-41.393-32.318h-85.333v-298.667c0-23.564-19.103-42.667-42.667-42.667h-170.667c-23.564 0-42.667 19.103-42.667 42.667v298.667h-85.333c-23.564 0-42.667 19.103-42.667 42.667v170.667c0 23.564 19.103 42.667 42.667 42.667h85.333v85.333zM725.333 832h-85.333c-94.257 0-170.667-76.41-170.667-170.667v-128c0-23.564-19.103-42.667-42.667-42.667h-85.333v-85.333h85.333c23.564 0 42.667-19.103 42.667-42.667v-298.667h85.333v298.667c0 23.564 19.103 42.667 42.667 42.667h94.687l21.333 85.333h-116.020c-23.564 0-42.667 19.103-42.667 42.667v128c0 47.128 38.205 85.333 85.333 85.333h85.333v85.333z" />
<glyph unicode="&#xe956;" glyph-name="fast-forward" d="M580.861 780.267l384-298.667c21.962-17.082 21.962-50.276 0-67.358l-384-298.667c-28.026-21.798-68.861-1.826-68.861 33.679v597.333c0 35.505 40.836 55.477 68.861 33.679zM111.528 780.267l384-298.667c21.962-17.082 21.962-50.276 0-67.358l-384-298.667c-28.026-21.798-68.861-1.826-68.861 33.679v597.333c0 35.505 40.836 55.477 68.861 33.679zM597.333 659.35v-422.857l271.837 211.429-271.837 211.429zM128 659.35v-422.857l271.837 211.429-271.837 211.429z" />
<glyph unicode="&#xe957;" glyph-name="feather" d="M893.743 829.814c116.684-116.684 116.692-305.863 0.023-422.557l-287.552-288.405c-8.005-8.029-18.877-12.542-30.215-12.542l-345.003 0.014-115.494-115.518c-15.381-15.381-39.583-16.564-56.32-3.549l-4.020 3.549c-16.662 16.662-16.662 43.677 0 60.34v0l115.503 115.551v344.946c0 11.316 4.495 22.168 12.497 30.17l288 288c116.692 116.692 305.888 116.692 422.58 0zM643.328 276.992h-241.664l-85.333-85.333 241.959-0.014 85.038 85.348zM531.503 769.474l-275.503-275.503v-241.939l396.497 396.449c15.381 15.381 39.583 16.564 56.32 3.549l4.020-3.549c16.662-16.662 16.662-43.677 0-60.34v0l-225.839-225.816 238.336-0.014c0.987 0 1.966-0.033 2.935-0.099l105.090 105.318c83.412 83.412 83.412 218.578 0.045 301.945s-218.533 83.367-301.9 0z" />
<glyph unicode="&#xe958;" glyph-name="file" d="M554.667 917.333c1.817 0 3.608-0.114 5.365-0.334l-5.365 0.334c2.254 0 4.49-0.178 6.689-0.527 1.349-0.207 2.668-0.48 3.963-0.813 0.433-0.122 0.863-0.24 1.291-0.365 1.323-0.374 2.621-0.821 3.888-1.328 0.382-0.165 0.768-0.326 1.151-0.492 1.206-0.512 2.373-1.085 3.509-1.709 0.442-0.251 0.895-0.509 1.343-0.776 1.201-0.71 2.358-1.48 3.474-2.303 0.273-0.204 0.567-0.426 0.858-0.652 0.19-0.146 0.355-0.276 0.519-0.408l3.484-3.123 298.667-298.667c1.252-1.252 2.426-2.581 3.515-3.98l-3.515 3.98c1.529-1.529 2.931-3.163 4.197-4.884 0.81-1.093 1.58-2.25 2.293-3.445 0.263-0.454 0.521-0.906 0.771-1.363 0.624-1.122 1.197-2.289 1.717-3.485 0.159-0.393 0.319-0.779 0.474-1.167 0.517-1.262 0.965-2.559 1.35-3.884 0.113-0.427 0.231-0.858 0.343-1.29 0.344-1.296 0.617-2.615 0.828-3.954 0.066-0.452 0.129-0.897 0.185-1.342 0.224-1.748 0.337-3.539 0.337-5.356v0-469.333c0-70.692-57.308-128-128-128h-512c-70.692 0-128 57.308-128 128v682.667c0 70.692 57.308 128 128 128zM512 832h-256c-23.564 0-42.667-19.103-42.667-42.667v-682.667c0-23.564 19.103-42.667 42.667-42.667h512c23.564 0 42.667 19.103 42.667 42.667v426.667h-256c-21.881 0-39.915 16.471-42.38 37.691l-0.287 4.976v256zM750.336 618.667l-153.003 152.96v-152.96h153.003z" />
<glyph unicode="&#xe959;" glyph-name="file-minus" d="M597.333 917.333c1.817 0 3.608-0.114 5.365-0.334l-5.365 0.334c2.254 0 4.49-0.178 6.689-0.527 1.349-0.207 2.668-0.48 3.963-0.813 0.433-0.122 0.863-0.24 1.291-0.365 1.323-0.374 2.621-0.821 3.888-1.328 0.382-0.165 0.768-0.326 1.151-0.492 1.206-0.512 2.373-1.085 3.509-1.709 0.442-0.251 0.895-0.509 1.343-0.776 1.201-0.71 2.358-1.48 3.474-2.303 0.273-0.204 0.567-0.426 0.858-0.652 0.19-0.146 0.355-0.276 0.519-0.408l3.484-3.123 256-256c1.252-1.252 2.426-2.581 3.515-3.98l-3.515 3.98c1.529-1.529 2.931-3.163 4.197-4.884 0.81-1.093 1.58-2.25 2.293-3.445 0.263-0.454 0.521-0.906 0.771-1.363 0.624-1.122 1.197-2.289 1.717-3.485 0.159-0.393 0.319-0.779 0.474-1.167 0.517-1.262 0.965-2.559 1.35-3.884 0.113-0.427 0.231-0.858 0.343-1.29 0.344-1.296 0.617-2.615 0.828-3.954 0.066-0.452 0.129-0.897 0.185-1.342 0.224-1.748 0.337-3.539 0.337-5.356v0-512c0-70.692-57.308-128-128-128h-512c-70.692 0-128 57.308-128 128v682.667c0 70.692 57.308 128 128 128zM554.667 832h-298.667c-23.564 0-42.667-19.103-42.667-42.667v-682.667c0-23.564 19.103-42.667 42.667-42.667h512c23.564 0 42.667 19.103 42.667 42.667v469.333h-213.333c-21.881 0-39.915 16.471-42.38 37.691l-0.287 4.976v213.333zM640 362.667c23.564 0 42.667-19.103 42.667-42.667s-19.103-42.667-42.667-42.667v0h-256c-23.564 0-42.667 19.103-42.667 42.667s19.103 42.667 42.667 42.667v0zM640 771.627v-110.293h110.336l-110.336 110.293z" />
<glyph unicode="&#xe95a;" glyph-name="file-plus" d="M597.333 917.333c1.817 0 3.608-0.114 5.365-0.334l-5.365 0.334c2.254 0 4.49-0.178 6.689-0.527 1.349-0.207 2.668-0.48 3.963-0.813 0.433-0.122 0.863-0.24 1.291-0.365 1.323-0.374 2.621-0.821 3.888-1.328 0.382-0.165 0.768-0.326 1.151-0.492 1.206-0.512 2.373-1.085 3.509-1.709 0.442-0.251 0.895-0.509 1.343-0.776 1.201-0.71 2.358-1.48 3.474-2.303 0.273-0.204 0.567-0.426 0.858-0.652 0.19-0.146 0.355-0.276 0.519-0.408l3.484-3.123 256-256c1.252-1.252 2.426-2.581 3.515-3.98l-3.515 3.98c1.529-1.529 2.931-3.163 4.197-4.884 0.81-1.093 1.58-2.25 2.293-3.445 0.263-0.454 0.521-0.906 0.771-1.363 0.624-1.122 1.197-2.289 1.717-3.485 0.159-0.393 0.319-0.779 0.474-1.167 0.517-1.262 0.965-2.559 1.35-3.884 0.113-0.427 0.231-0.858 0.343-1.29 0.344-1.296 0.617-2.615 0.828-3.954 0.066-0.452 0.129-0.897 0.185-1.342 0.224-1.748 0.337-3.539 0.337-5.356v0-512c0-70.692-57.308-128-128-128h-512c-70.692 0-128 57.308-128 128v682.667c0 70.692 57.308 128 128 128zM554.667 832h-298.667c-23.564 0-42.667-19.103-42.667-42.667v-682.667c0-23.564 19.103-42.667 42.667-42.667h512c23.564 0 42.667 19.103 42.667 42.667v469.333h-213.333c-21.881 0-39.915 16.471-42.38 37.691l-0.287 4.976v213.333zM512 490.667c23.564 0 42.667-19.103 42.667-42.667v0-85.333h85.333c21.881 0 39.915-16.471 42.38-37.691l0.287-4.976c0-23.564-19.103-42.667-42.667-42.667v0h-85.333v-85.333c0-21.881-16.471-39.915-37.691-42.38l-4.976-0.287c-23.564 0-42.667 19.103-42.667 42.667v0 85.333h-85.333c-21.881 0-39.915 16.471-42.38 37.691l-0.287 4.976c0 23.564 19.103 42.667 42.667 42.667v0h85.333v85.333c0 21.881 16.471 39.915 37.691 42.38zM640 771.627v-110.293h110.336l-110.336 110.293z" />
<glyph unicode="&#xe95b;" glyph-name="file-text" d="M597.333 917.333c1.817 0 3.608-0.114 5.365-0.334l-5.365 0.334c2.254 0 4.49-0.178 6.689-0.527 1.349-0.207 2.668-0.48 3.963-0.813 0.433-0.122 0.863-0.24 1.291-0.365 1.323-0.374 2.621-0.821 3.888-1.328 0.382-0.165 0.768-0.326 1.151-0.492 1.206-0.512 2.373-1.085 3.509-1.709 0.442-0.251 0.895-0.509 1.343-0.776 1.201-0.71 2.358-1.48 3.474-2.303 0.273-0.204 0.567-0.426 0.858-0.652 0.19-0.146 0.355-0.276 0.519-0.408l3.484-3.123 256-256c1.252-1.252 2.426-2.581 3.515-3.98l-3.515 3.98c1.529-1.529 2.931-3.163 4.197-4.884 0.81-1.093 1.58-2.25 2.293-3.445 0.263-0.454 0.521-0.906 0.771-1.363 0.624-1.122 1.197-2.289 1.717-3.485 0.159-0.393 0.319-0.779 0.474-1.167 0.517-1.262 0.965-2.559 1.35-3.884 0.113-0.427 0.231-0.858 0.343-1.29 0.344-1.296 0.617-2.615 0.828-3.954 0.066-0.452 0.129-0.897 0.185-1.342 0.224-1.748 0.337-3.539 0.337-5.356v0-512c0-70.692-57.308-128-128-128h-512c-70.692 0-128 57.308-128 128v682.667c0 70.692 57.308 128 128 128zM554.667 832h-298.667c-23.564 0-42.667-19.103-42.667-42.667v-682.667c0-23.564 19.103-42.667 42.667-42.667h512c23.564 0 42.667 19.103 42.667 42.667v469.333h-213.333c-21.881 0-39.915 16.471-42.38 37.691l-0.287 4.976v213.333zM682.667 277.333c23.564 0 42.667-19.103 42.667-42.667s-19.103-42.667-42.667-42.667v0h-341.333c-23.564 0-42.667 19.103-42.667 42.667s19.103 42.667 42.667 42.667v0zM682.667 448c23.564 0 42.667-19.103 42.667-42.667s-19.103-42.667-42.667-42.667v0h-341.333c-23.564 0-42.667 19.103-42.667 42.667s19.103 42.667 42.667 42.667v0zM426.667 618.667c23.564 0 42.667-19.103 42.667-42.667s-19.103-42.667-42.667-42.667v0h-85.333c-23.564 0-42.667 19.103-42.667 42.667s19.103 42.667 42.667 42.667v0zM640 771.627v-110.293h110.336l-110.336 110.293z" />
<glyph unicode="&#xe95c;" glyph-name="film" d="M845.653 917.333c74.934 0 135.68-60.746 135.68-135.68v-667.307c0-74.934-60.746-135.68-135.68-135.68h-667.307c-74.934 0-135.68 60.746-135.68 135.68v667.307c0 74.934 60.746 135.68 135.68 135.68h667.307zM256 192h-128v-77.653c0-27.806 22.541-50.347 50.347-50.347h77.653v128zM682.667 405.333h-341.333v-341.333h341.333v341.333zM896 192h-128v-128h77.653c27.806 0 50.347 22.541 50.347 50.347v77.653zM896 405.333h-128v-128h128v128zM256 405.333h-128v-128h128v128zM256 618.667h-128v-128h128v128zM682.667 832h-341.333v-341.333h341.333v341.333zM896 618.667h-128v-128h128v128zM845.653 832h-77.653v-128h128v77.653c0 27.806-22.541 50.347-50.347 50.347zM256 832h-77.653c-27.806 0-50.347-22.541-50.347-50.347v-77.653h128v128z" />
<glyph unicode="&#xe95d;" glyph-name="filter" d="M384.082 412.751l-331.246 391.698c-23.452 27.732-3.74 70.218 32.579 70.218h853.333c36.319 0 56.031-42.485 32.579-70.218l-331.246-391.698v-348.751c0-31.718-33.379-52.347-61.748-38.162l-170.667 85.333c-14.455 7.227-23.586 22.001-23.586 38.162v263.418zM846.789 789.333h-669.414l281.953-333.409c6.514-7.702 10.088-17.464 10.088-27.551v-252.671l85.333-42.667v295.337c0 10.087 3.574 19.849 10.088 27.551l281.953 333.409z" />
<glyph unicode="&#xe95e;" glyph-name="flag" d="M128 832c0 11.316 4.495 22.168 12.497 30.17 9.369 9.369 26.223 20.605 51.657 30.778 38.52 15.408 87.893 24.385 149.179 24.385 60.44 0 101.659-11.777 186.513-45.718 75.146-30.058 108.594-39.615 154.821-39.615 50.714 0 89.341 7.023 117.487 18.282 14.565 5.826 21.711 10.59 23.009 11.888 26.879 26.879 72.837 7.842 72.837-30.17v-512c0-11.316-4.495-22.168-12.497-30.17-9.369-9.369-26.223-20.605-51.657-30.778-38.52-15.408-87.893-24.385-149.179-24.385-60.44 0-101.659 11.777-186.513 45.718-75.146 30.058-108.594 39.615-154.821 39.615-50.714 0-89.341-7.023-117.487-18.282-4.091-1.637-7.597-3.189-10.553-4.605l0.040-275.78c0-23.564-19.103-42.667-42.667-42.667s-42.667 19.103-42.667 42.667v0 810.667zM341.333 832c-50.714 0-89.341-7.023-117.487-18.282-4.073-1.629-7.566-3.175-10.513-4.586v-420.714c34.949 10.799 77.417 16.915 128 16.915 60.44 0 101.659-11.777 186.513-45.718 75.146-30.058 108.594-39.615 154.821-39.615 50.714 0 89.341 7.023 117.487 18.282 4.073 1.629 7.566 3.175 10.513 4.586v420.714c-34.949-10.799-77.417-16.915-128-16.915-60.44 0-101.659 11.777-186.513 45.718-75.146 30.058-108.594 39.615-154.821 39.615z" />
<glyph unicode="&#xe95f;" glyph-name="folder" d="M361.165 789.333h-190.499c-23.564 0-42.667-19.103-42.667-42.667v-597.333c0-23.564 19.103-42.667 42.667-42.667h682.667c23.564 0 42.667 19.103 42.667 42.667v469.333c0 23.564-19.103 42.667-42.667 42.667h-384c-14.266 0-27.588 7.13-35.501 18.999l-72.667 109.001zM492.168 746.667h361.165c70.692 0 128-57.308 128-128v-469.333c0-70.692-57.308-128-128-128h-682.667c-70.692 0-128 57.308-128 128v597.333c0 70.692 57.308 128 128 128h213.333c14.266 0 27.588-7.13 35.501-18.999l72.667-109.001z" />
<glyph unicode="&#xe960;" glyph-name="github" d="M371.74 147.534c-91.801-27.54-128.897-12.964-174.808 43.883-3.044 3.769-15.806 19.97-19.221 24.189-27.437 33.904-49.39 52.293-82.030 60.453-22.861 5.715-46.026-8.184-51.741-31.045s8.184-46.026 31.045-51.741c9.83-2.457 19.709-10.733 36.392-31.348 2.953-3.649 15.68-19.806 19.168-24.124 66.314-82.109 138.057-110.299 265.715-72.002 22.57 6.771 35.378 30.557 28.607 53.127s-30.557 35.378-53.127 28.607zM960 553.813c-0.011 61.867-20.886 121.648-58.834 169.872 14.576 55.516 10.349 114.582-12.456 167.79-4.997 11.659-14.923 20.49-27.083 24.097-2.444 0.725-5.424 1.381-8.936 1.891-40.1 5.821-98.884-10.010-177.662-59.984-93.166 22.114-190.223 22.114-283.389 0-78.778 49.974-137.562 65.805-177.662 59.984-3.512-0.51-6.493-1.166-8.936-1.891-12.161-3.607-22.086-12.438-27.083-24.097-22.805-53.207-27.032-112.273-12.456-167.789-38.268-48.629-59.165-108.996-58.837-171.38 0-196.746 87.888-292.942 247.498-329.57-10.227-25.735-14.708-53.709-12.723-81.943l-0.105-162.127c0-23.564 19.103-42.667 42.667-42.667s42.667 19.103 42.667 42.667v165.12c-2.119 31.633 8.135 59.778 28.1 80.409 24.477 25.293 9.527 67.674-25.401 72.013-161.907 20.11-237.366 83.56-237.366 256.325-0.261 49.207 18.46 96.385 52.235 131.86 11.259 11.826 14.781 29.040 9.072 44.338-12.265 32.864-14.214 68.447-5.96 102.093 2.996-0.677 6.281-1.518 9.864-2.549 27.493-7.914 61.756-24.527 103.032-52.195 10.26-6.877 22.996-8.971 34.918-5.74 90.483 24.523 185.862 24.523 276.345 0 11.922-3.231 24.658-1.137 34.918 5.74 41.275 27.668 75.539 44.281 103.032 52.195 3.583 1.031 6.868 1.872 9.864 2.549 8.254-33.646 6.305-69.229-5.96-102.093-5.709-15.298-2.187-32.512 9.072-44.338 33.524-35.214 52.226-81.969 52.235-130.588 0-174.4-76.029-238.331-236.833-256.255-35.244-3.928-50.591-46.641-25.908-72.102 20.209-20.846 30.483-49.372 28.206-78.315l-0.131-168.466c0-23.564 19.103-42.667 42.667-42.667s42.667 19.103 42.667 42.667v165.12c2.168 26.663-2.202 54.058-12.399 79.651 158.738 35.193 247.066 132.311 247.066 330.376z" />
<glyph unicode="&#xe961;" glyph-name="globe" d="M512 917.333c259.206 0 469.333-210.128 469.333-469.333s-210.128-469.333-469.333-469.333c-259.206 0-469.333 210.128-469.333 469.333s210.128 469.333 469.333 469.333zM300.919 405.288l-170.572 0.016c17.636-159.427 132.873-289.434 284.632-328.942-64.887 97.577-104.295 210.484-114.060 328.926zM893.653 405.304l-170.46-0.005c-9.571-117.876-49.023-231.026-114.145-328.915 151.753 39.511 266.97 169.508 284.605 328.92zM637.662 405.318l-251.202-0.013c10.722-115.752 54.307-226.031 125.541-317.805 71.505 92.108 115.15 202.737 125.661 317.818zM414.952 819.616l-1.545-0.391c-150.996-39.998-265.505-169.676-283.065-328.571l170.461 0.005c9.564 117.892 49.019 231.057 114.149 328.957zM511.999 808.501c-71.514-92.119-115.161-202.764-125.665-317.861l251.21 0.013c-10.716 115.768-54.302 226.062-125.545 317.848zM609.021 819.638l8.066-12.412c60.096-94.697 96.65-203.088 105.998-316.557l170.573-0.016c-17.62 159.447-132.864 289.473-284.637 328.984z" />
<glyph unicode="&#xe962;" glyph-name="Google-Podcast" d="M533.333 151.742c28.997 0 52.828-22.019 55.693-50.256l0.289-5.737v-61.064c0-30.966-25.052-56.018-55.982-56.018s-55.982 25.052-55.982 56.018l-0.036 61.064c0.036 30.941 25.088 55.993 56.018 55.993zM334.794 329.927c30.93 0 55.982-25.052 55.982-55.982l0.022-0.036v-61.071l-0.056 0.026-0.254-5.726c-2.866-28.267-26.696-50.286-55.693-50.286-30.93 0-55.982 25.052-55.982 56.018v61.075c0 30.93 25.052 55.982 55.982 55.982zM731.873 467.388c30.93 0 55.982-25.052 55.982-55.982v-198.536c0-30.966-25.052-56.018-55.982-56.018-30.916 0-55.959 25.029-55.982 55.975l-0.022 0.011v198.554c0.022-0.015 0.022 0 0.022 0.014 0 30.93 25.052 55.982 55.982 55.982zM477.333 589.574c0.018 30.912 25.070 56 56 56 28.997 0 52.828-22.050 55.693-50.262l0.307-5.738-0.018-325.814c0-30.93-25.052-56.018-55.982-56.018s-55.982 25.088-55.982 56.018l-0.018 325.814zM141.333 513.202c30.93 0 55.982-25.052 55.982-55.982l0.018-0.025v-61.071l-0.018 0.022c0-30.93-25.052-56.018-55.982-56.018s-55.982 25.088-55.982 56.018v61.075c0 30.93 25.052 55.982 55.982 55.982zM925.333 513.202c30.93 0 55.982-25.052 55.982-55.982l0.018-0.025v-61.071l-0.018 0.022c0-30.93-25.052-56.018-55.982-56.018s-55.982 25.088-55.982 56.018v61.075c0 30.93 25.052 55.982 55.982 55.982zM334.794 696.481c30.93 0 55.982-25.088 55.982-55.982l0.022-0.018v-199.808l-0.099 0.031-0.211-4.473c-2.866-28.267-26.696-50.286-55.693-50.286-30.497 0-55.28 24.356-55.967 54.722l-0.029 0.006v199.808c0.014 30.912 25.066 56 55.996 56zM731.873 696.481c28.997 0 52.828-22.050 55.693-50.262l0.303-5.738-0.014-61.075c0-30.93-25.052-56.018-55.982-56.018s-55.982 25.088-55.982 56.018l-0.022-0.032v61.107l0.022 0.018c0 30.894 25.052 55.982 55.982 55.982zM533.333 874.667c28.997 0 52.828-22.050 55.693-50.262l0.289-5.727v-61.086c0-30.93-25.052-56.018-55.982-56.018s-55.982 25.088-55.982 56.018l-0.036 61.086c0.036 30.901 25.088 55.989 56.018 55.989z" />
<glyph unicode="&#xe963;" glyph-name="grid" d="M170.667 789.333v-213.333h213.333v213.333h-213.333zM896 405.333c23.564 0 42.667-19.103 42.667-42.667v-298.667c0-23.564-19.103-42.667-42.667-42.667h-298.667c-23.564 0-42.667 19.103-42.667 42.667v298.667c0 23.564 19.103 42.667 42.667 42.667h298.667zM426.667 405.333c23.564 0 42.667-19.103 42.667-42.667v-298.667c0-23.564-19.103-42.667-42.667-42.667h-298.667c-23.564 0-42.667 19.103-42.667 42.667v298.667c0 23.564 19.103 42.667 42.667 42.667h298.667zM853.333 320h-213.333v-213.333h213.333v213.333zM384 320h-213.333v-213.333h213.333v213.333zM426.667 874.667c23.564 0 42.667-19.103 42.667-42.667v-298.667c0-23.564-19.103-42.667-42.667-42.667h-298.667c-23.564 0-42.667 19.103-42.667 42.667v298.667c0 23.564 19.103 42.667 42.667 42.667h298.667zM896 874.667c23.564 0 42.667-19.103 42.667-42.667v-298.667c0-23.564-19.103-42.667-42.667-42.667h-298.667c-23.564 0-42.667 19.103-42.667 42.667v298.667c0 23.564 19.103 42.667 42.667 42.667h298.667zM853.333 789.333h-213.333v-213.333h213.333v213.333z" />
<glyph unicode="&#xe964;" glyph-name="hash" d="M682.401 874.666l4.977-0.264c23.42-2.602 40.296-23.697 37.694-47.117v0l-23.206-208.618 151.467-0.004c21.881 0 39.915-16.471 42.38-37.691l0.287-4.976c0-23.564-19.103-42.667-42.667-42.667v0l-160.981 0.004-18.944-170.667 179.925-0.004c21.881 0 39.915-16.471 42.38-37.691l0.287-4.976c0-23.564-19.103-42.667-42.667-42.667v0l-189.397 0.004-24.197-218.049c-2.416-21.747-20.778-37.852-42.14-37.958l-4.977 0.264c-23.42 2.602-40.296 23.697-37.694 47.117v0l23.163 208.625h-170.155l-24.197-218.049c-2.416-21.747-20.778-37.852-42.14-37.958l-4.977 0.264c-23.42 2.602-40.296 23.697-37.694 47.117v0l23.163 208.625-151.424-0.004c-21.881 0-39.915 16.471-42.38 37.691l-0.287 4.976c0 23.564 19.103 42.667 42.667 42.667v0l160.896 0.004 18.987 170.667-179.883-0.004c-21.881 0-39.915 16.471-42.38 37.691l-0.287 4.976c0 23.564 19.103 42.667 42.667 42.667v0l189.355 0.004 24.24 218.041c2.416 21.747 20.778 37.852 42.14 37.958l4.977-0.264c23.42-2.602 40.296-23.697 37.694-47.117v0l-23.206-208.618h170.155l24.24 218.041c2.416 21.747 20.778 37.852 42.14 37.958zM587.563 362.667l18.987 170.667h-170.197l-18.944-170.667h170.155z" />
<glyph unicode="&#xe965;" glyph-name="headphones" d="M512 874.667c235.641 0 426.667-191.025 426.667-426.667v0-298.667c0-70.692-57.308-128-128-128h-42.667c-70.692 0-128 57.308-128 128v128c0 70.692 57.308 128 128 128l85.333 0.043v42.624c0 184.956-147.108 335.554-330.702 341.171l-10.632 0.162c-188.513 0-341.333-152.82-341.333-341.333v0-42.624l85.333-0.043c70.692 0 128-57.308 128-128v-128c0-70.692-57.308-128-128-128h-42.667c-70.692 0-128 57.308-128 128v298.667c0 235.641 191.025 426.667 426.667 426.667zM853.333 320h-85.333c-23.564 0-42.667-19.103-42.667-42.667v-128c0-23.564 19.103-42.667 42.667-42.667h42.667c23.564 0 42.667 19.103 42.667 42.667v170.667zM256 320h-85.333v-170.667c0-23.564 19.103-42.667 42.667-42.667h42.667c23.564 0 42.667 19.103 42.667 42.667v128c0 23.564-19.103 42.667-42.667 42.667z" />
<glyph unicode="&#xe966;" glyph-name="heart" d="M546.305 793.392c52.014 52.038 122.574 81.275 196.15 81.275s144.136-29.237 196.15-81.275c52.024-52 81.261-122.56 81.261-196.136s-29.237-144.136-81.268-196.143l-377.173-377.173c-16.662-16.662-43.677-16.662-60.34 0l-377.173 377.173c-108.327 108.327-108.327 283.96 0 392.286s283.96 108.327 392.286 0l15.057-15.057 15.050 15.050zM531.255 114.449l347.011 347.011c36.026 36.010 56.267 84.859 56.267 135.796s-20.241 99.787-56.267 135.796c-36.024 36.041-84.873 56.282-135.811 56.282s-99.787-20.241-135.803-56.274l-45.227-45.227c-16.662-16.662-43.677-16.662-60.34 0l-45.227 45.227c-75.002 75.002-196.605 75.002-271.607 0s-75.002-196.605 0-271.607l347.003-347.003z" />
<glyph unicode="&#xe967;" glyph-name="home" d="M213.333-21.333c-70.692 0-128 57.308-128 128v469.333c0 13.167 6.079 25.596 16.472 33.679l384 298.667c15.407 11.984 36.982 11.984 52.39 0l384-298.667c10.393-8.083 16.472-20.513 16.472-33.679v-469.333c0-70.692-57.308-128-128-128h-597.333zM512 820.614l-341.333-265.481v-448.466c0-23.564 19.103-42.667 42.667-42.667h128v384c0 21.881 16.471 39.915 37.691 42.38l4.976 0.287h256c23.564 0 42.667-19.103 42.667-42.667v0-384h128c23.564 0 42.667 19.103 42.667 42.667v448.466l-341.333 265.481zM597.333 405.333h-170.667v-341.333h170.667v341.333z" />
</font>
</defs>
</svg>
